Subcategories

Art Blakey & The Jazz Messengers – At The Cafe Bohemia Vol. 2 (1955)(Blue Note USA Pressing)(CDP 746522 2)

Posted By: janwal46
Art Blakey & The Jazz Messengers – At The Cafe Bohemia Vol. 2 (1955)(Blue Note USA Pressing)(CDP 746522 2)

Art Blakey & The Jazz Messengers – At The Cafe Bohemia Vol. 2 (1955)(Blue Note USA Pressing)(CDP 746522 2)

Art Blakey & The Jazz Messengers – At The Cafe Bohemia Vol. 2 (1955)(Blue Note USA Pressing)(CDP 746522 2)

Art Blakey & The Jazz Messengers – At The Cafe Bohemia Vol. 2 (1955)(Blue Note USA Pressing)(CDP 746522 2)
1955 | Jazz | EAC RIP | FLAC+CUE+LOG+HQ-Covers(400Dpi) | 426Mb+7Mb

“They were so hip, you know, they were super-hip!” Those were Horace Silver's words describing the horn section of the 1st edition of Art Blakey's Jazz Messengers. Kenny Dorham and Hank Mobley weren't the flashiest players, and they were overlooked in the era of Miles and Clifford and Sonny and Trane. But they were also gifted improvisers and composers, as the Bohemia recordings clearly show. Kenny was more boppish than Miles but definitely a middle-register trumpeter; while Hank had a mellow, soulful sound perfect for hard bop. Add the tireless drums of Blakey and the blues-drenched piano of Horace Silver, and you've got a winning combo. This is the same lineup that recorded the classic album Horace Silver and the Jazz Messengers about a year earlier; but there aren't any Silver compositions on the Bohemia recordings.
Volume 2 focuses primarily on Hank Mobley's contributions. "Sportin' Crowd" (a.k.a. "Tenor Madness" of Rollins-Coltrane fame) swings hard, while "Avila & Tequila" is an intense Afro-Latin romp that ranks among his best compositions. As far as standards go, "Like Someone in Love" has that great groovy feel that Blakey and his bands perfected.

Personnel:

Art Blakey - Drums
Hank Mobley - Tenor Saxophone
Kenny Dorham - Trumpet
Horace Silver - Piano
Doug Watkins – Bass

Tracklist:

01 - Sportin' Crowd
02 - Like Someone In Love
03 - Yesterdays
04 - Just One Of Those Things
05 - Hanks Symphony
06 - Gone With The Wind
07 - Avila & Tequila
08 - I waited For You

Recorded by Rudy Van Gelder on November 23, 1955

Exact Audio Copy V0.99 prebeta 4 from 23. January 2008

EAC extraction logfile from 12. June 2009, 16:05

Art Blakey / The Jazz Messengers At The Cafe Bohemia - Vol. 2

Used drive : _NEC DVD_RW ND-3520A Adapter: 1 ID: 1

Read mode : Secure
Utilize accurate stream : Yes
Defeat audio cache : No
Make use of C2 pointers : No

Read offset correction : 48
Overread into Lead-In and Lead-Out : No
Fill up missing offset samples with silence : Yes
Delete leading and trailing silent blocks : No
Null samples used in CRC calculations : No
Used interface : Native Win32 interface for Win NT & 2000

Used output format : Internal WAV Routines
Sample format : 44.100 Hz; 16 Bit; Stereo


TOC of the extracted CD

Track | Start | Length | Start sector | End sector
––––––––––––––––––––––––––––-
1 | 0:00.00 | 7:04.55 | 0 | 31854
2 | 7:04.55 | 9:25.30 | 31855 | 74259
3 | 16:30.10 | 4:41.73 | 74260 | 95407
4 | 21:12.08 | 9:29.12 | 95408 | 138094
5 | 30:41.20 | 4:44.15 | 138095 | 159409
6 | 35:25.35 | 7:27.50 | 159410 | 192984
7 | 42:53.10 | 12:25.18 | 192985 | 248877
8 | 55:18.28 | 10:14.60 | 248878 | 294987


Range status and errors

Selected range

Filename G:\AVAXHOME\Art Blakey & The Jazz Messengers - At The Cafe Bohemia Vol. 2 (1955)\Art Blakey - The Jazz Messengers At The Cafe Bohemia Vol. 2.wav

Peak level 91.2 %
Range quality 99.9 %
Copy CRC 3215A505
Copy OK

No errors occurred


AccurateRip summary

Track 1 accurately ripped (confidence 2) [75C63EB1]
Track 2 accurately ripped (confidence 2) [7BE37BC5]
Track 3 accurately ripped (confidence 2) [59825DEB]
Track 4 accurately ripped (confidence 2) [0E93EA2C]
Track 5 accurately ripped (confidence 2) [D63574C1]
Track 6 accurately ripped (confidence 2) [E35459CC]
Track 7 accurately ripped (confidence 2) [AAF7213D]
Track 8 accurately ripped (confidence 2) [4B2D7B91]

All tracks accurately ripped

End of status report

RIPPED BY JANWAL46

RS Links: