Subcategories
Tags
Language
Tags

Arthur Blythe - Night Song (1997) {Clarity Recordings CCD-1016}

Posted By: ruskaval
Arthur Blythe - Night Song (1997) {Clarity Recordings CCD-1016}

Arthur Blythe - Night Song (1997) {Clarity Recordings CCD-1016}
EAC rip (secure mode) | FLAC (tracks)+CUE+LOG -> 315 Mb | MP3 @320 -> 143 Mb
Full Artwork @ 600 dpi (jpg) -> 32 Mb | 5% repair rar
© 1997 Clarity Recordings | CCD-1016
Jazz / Contemporary Jazz / Post Bop / Saxophone

This is a particularly intriguing and enjoyable release. Arthur Blythe, who has always had a piercing, passionate, and fairly accessible sound on alto, is joined by Bob Stewart on tuba, Gust Tsilis (doubling on marimba and vibes), three hand drummers (Arto Tuncboyaciyan, Josh Jones, and David Frazier), and occasionally his producer, Chico Freeman, on bass clarinet and percussion. The instrumentation varies from cut to cut, with several duets (including one in which the bass clarinet and tuba blend perfectly together), opportunities for Blythe to play with just the percussionists, and rather unusual versions of Thelonious Monk's "We See" and Billy Strayhorn's "Blood Count." Whether it be hints at New Orleans parade rhythms, Afro-Cuban jazz, older styles of jazz, or freer explorations, this is a fascinating set that is well worth several listens.
Arthur Blythe - Night Song (1997) {Clarity Recordings CCD-1016}


Naturally balanced
Two microphones
Audiophile Recording


Personnel
Arthur Blythe – alto saxophone
Chico Freeman – bass clarinet, percussion
Bob Stewart – tuba
Gust Tsillis – marimba, vibraphone
Arto Tunçboyacıyan, David Frazier, Josh Jones – percussion

Recorded August 13, 14 and 15, 1996 at the First Unitarian Church of Berkeley, California.

Tracks
01 - Night Song
02 - Sorrows Of Sonny Liston
03 - Down San Diego Way
04 - It's Hungry - Fulfillment
05 - Ransom
06 - Cause Of It All
07 - We See
08 - Blood Count
09 - Slanderous
10 - Contemplation
11 - Hardly
12 - Night Song (Cancion De La Noche) (Reprise)

Exact Audio Copy V1.3 from 2. September 2016

EAC extraction logfile from 16. August 2020, 20:28

Arthur Blythe / Night Song

Used drive : ATAPI iHAS122 F Adapter: 1 ID: 0

Read mode : Secure
Utilize accurate stream : Yes
Defeat audio cache : Yes
Make use of C2 pointers : No

Read offset correction : 6
Overread into Lead-In and Lead-Out : No
Fill up missing offset samples with silence : Yes
Delete leading and trailing silent blocks : No
Null samples used in CRC calculations : Yes
Used interface : Native Win32 interface for Win NT & 2000
Gap handling : Appended to previous track

Used output format : User Defined Encoder
Selected bitrate : 1024 kBit/s
Quality : High
Add ID3 tag : No
Command line compressor : C:\Program Files (x86)\Exact Audio Copy_v1.3\Flac\flac.exe
Additional command line options : -8 -V -T "ARTIST=%artist%" -T "TITLE=%title%" -T "ALBUM=%albumtitle%" -T "DATE=%year%" -T "TRACKNUMBER=%tracknr%" -T "TOTALTRACKS=%numtracks%" -T "GENRE=%genre%" -T "ALBUMARTIST=%albumartist%" -T "ALBUM ARTIST=%albumartist%" -T "COMMENT=EAC Secure Mode, Test & Copy, AccurateRip, FLAC -8" %source%


TOC of the extracted CD

Track | Start | Length | Start sector | End sector
––––––––––––––––––––––––––––-
1 | 0:00.30 | 5:44.44 | 30 | 25873
2 | 5:44.74 | 3:58.15 | 25874 | 43738
3 | 9:43.14 | 3:43.57 | 43739 | 60520
4 | 13:26.71 | 7:43.67 | 60521 | 95312
5 | 21:10.63 | 4:04.37 | 95313 | 113649
6 | 25:15.25 | 5:02.40 | 113650 | 136339
7 | 30:17.65 | 5:05.11 | 136340 | 159225
8 | 35:23.01 | 6:18.68 | 159226 | 187643
9 | 41:41.69 | 3:57.65 | 187644 | 205483
10 | 45:39.59 | 5:43.72 | 205484 | 231280
11 | 51:23.56 | 5:24.47 | 231281 | 255627
12 | 56:48.28 | 2:59.52 | 255628 | 269104


Track 1

Filename F:\_EAC\Arthur Blythe - Night Song (1997) [FLAC]\01 - Night Song.wav

Pre-gap length 0:00:02.30

Peak level 98.5 %
Extraction speed 4.5 X
Track quality 99.9 %
Test CRC E778F33C
Copy CRC E778F33C
Accurately ripped (confidence 19) [AF435543] (AR v2)
Copy OK

Track 2

Filename F:\_EAC\Arthur Blythe - Night Song (1997) [FLAC]\02 - Sorrows Of Sonny Liston.wav

Peak level 98.4 %
Extraction speed 5.4 X
Track quality 100.0 %
Test CRC 6E3C30F9
Copy CRC 6E3C30F9
Accurately ripped (confidence 19) [4C4A50A2] (AR v2)
Copy OK

Track 3

Filename F:\_EAC\Arthur Blythe - Night Song (1997) [FLAC]\03 - Down San Diego Way.wav

Peak level 98.4 %
Extraction speed 4.7 X
Track quality 99.9 %
Test CRC FEAA3D18
Copy CRC FEAA3D18
Accurately ripped (confidence 19) [3680BD4F] (AR v2)
Copy OK

Track 4

Filename F:\_EAC\Arthur Blythe - Night Song (1997) [FLAC]\04 - It's Hungry - Fulfillment.wav

Peak level 80.6 %
Extraction speed 6.5 X
Track quality 100.0 %
Test CRC BFEF0A90
Copy CRC BFEF0A90
Accurately ripped (confidence 19) [5F736CAC] (AR v2)
Copy OK

Track 5

Filename F:\_EAC\Arthur Blythe - Night Song (1997) [FLAC]\05 - Ransom.wav

Peak level 98.4 %
Extraction speed 6.7 X
Track quality 100.0 %
Test CRC 0139D9BA
Copy CRC 0139D9BA
Accurately ripped (confidence 19) [78423D5A] (AR v2)
Copy OK

Track 6

Filename F:\_EAC\Arthur Blythe - Night Song (1997) [FLAC]\06 - Cause Of It All.wav

Peak level 89.4 %
Extraction speed 7.2 X
Track quality 100.0 %
Test CRC 6F38084A
Copy CRC 6F38084A
Accurately ripped (confidence 19) [F8F9473B] (AR v2)
Copy OK

Track 7

Filename F:\_EAC\Arthur Blythe - Night Song (1997) [FLAC]\07 - We See.wav

Peak level 85.6 %
Extraction speed 7.6 X
Track quality 100.0 %
Test CRC 3F46C598
Copy CRC 3F46C598
Accurately ripped (confidence 19) [4653D5E9] (AR v2)
Copy OK

Track 8

Filename F:\_EAC\Arthur Blythe - Night Song (1997) [FLAC]\08 - Blood Count.wav

Peak level 97.8 %
Extraction speed 8.1 X
Track quality 100.0 %
Test CRC 65CB3A6B
Copy CRC 65CB3A6B
Accurately ripped (confidence 19) [E98EBC78] (AR v2)
Copy OK

Track 9

Filename F:\_EAC\Arthur Blythe - Night Song (1997) [FLAC]\09 - Slanderous.wav

Peak level 94.6 %
Extraction speed 8.0 X
Track quality 100.0 %
Test CRC BB3115ED
Copy CRC BB3115ED
Accurately ripped (confidence 19) [9C56CC6D] (AR v2)
Copy OK

Track 10

Filename F:\_EAC\Arthur Blythe - Night Song (1997) [FLAC]\10 - Contemplation.wav

Peak level 97.7 %
Extraction speed 7.7 X
Track quality 99.9 %
Test CRC ADA20A98
Copy CRC ADA20A98
Accurately ripped (confidence 19) [D5CC7367] (AR v2)
Copy OK

Track 11

Filename F:\_EAC\Arthur Blythe - Night Song (1997) [FLAC]\11 - Hardly.wav

Peak level 94.1 %
Extraction speed 8.7 X
Track quality 100.0 %
Test CRC B18D9F88
Copy CRC B18D9F88
Accurately ripped (confidence 19) [262E2C59] (AR v2)
Copy OK

Track 12

Filename F:\_EAC\Arthur Blythe - Night Song (1997) [FLAC]\12 - Night Song (Cancion De La Noche) (Reprise).wav

Peak level 69.7 %
Extraction speed 8.4 X
Track quality 100.0 %
Test CRC 93BA8FF9
Copy CRC 93BA8FF9
Accurately ripped (confidence 19) [002894F5] (AR v2)
Copy OK


All tracks accurately ripped

No errors occurred

End of status report

–– CUETools DB Plugin V2.1.6

[CTDB TOCID: 09OQuGL8lJkJ.aH.myISvYHSJlA-] found
Submit result: 09OQuGL8lJkJ.aH.myISvYHSJlA- has been confirmed
Track | CTDB Status
1 | (19/20) Accurately ripped
2 | (19/20) Accurately ripped
3 | (19/20) Accurately ripped
4 | (19/20) Accurately ripped
5 | (19/20) Accurately ripped
6 | (19/20) Accurately ripped
7 | (19/20) Accurately ripped
8 | (19/20) Accurately ripped
9 | (19/20) Accurately ripped
10 | (19/20) Accurately ripped
11 | (19/20) Accurately ripped
12 | (19/20) Accurately ripped


==== Log checksum 15B915C27A4877C65E40EC4B4A0787A8722C05ED33ACBAE7A13FAE30B345C173 ====


Arthur Blythe - Night Song (1997) {Clarity Recordings CCD-1016}

Arthur Blythe - Night Song (1997) {Clarity Recordings CCD-1016}


see more Arthur Blythe…


===