Subcategories

Baker Gurvitz Army - Elysian Encounter (1975)

Posted By: stfine
Baker Gurvitz Army - Elysian Encounter (1975)

Baker Gurvitz Army - Elysian Encounter (1975)
EAC rip | FLAC image + cue + log + scans | 00:39:57 | 247 MB (3% rec.)
Hard/Blues/Progressive Rock | Label: Strange Days Records (Japan), WAS-1074

Reissue of 1975 album for the Mountain label by rock group featuring Cream's drummer Ginger Baker, twin brothers Adrian& Paul Gurvitz (formerly of Gary Moore's Gun), vocalist Snips and keyboardist Peter Lemer.

Tracklist (Amazon samples)

1. People [04:14]
2. The Key [06:23]
3. Time [04:04]
4. The Gambler [04:22]
5. The Dreamer [03:39]
6. Remember [05:23]
7. The Artist [05:11]
8. The Hustler [06:41]

Total time 00:39:57

Originally released at Mountain / TOPS 101 / 1975.
Reissued by Strange Days Records, 2005.12.20, under British Rock Masterpiece, part 7 (Underground Hard Rock & Blues).

Exact Audio Copy V0.99 prebeta 4 from 23. January 2008

EAC extraction logfile from 31. December 2008, 13:01

Baker Gurvitz Army / Elysian Encounter

Used drive : TSSTcorpCD/DVDW SH-W162C Adapter: 0 ID: 0

Read mode : Secure
Utilize accurate stream : Yes
Defeat audio cache : Yes
Make use of C2 pointers : No

Read offset correction : 6
Overread into Lead-In and Lead-Out : No
Fill up missing offset samples with silence : Yes
Delete leading and trailing silent blocks : No
Null samples used in CRC calculations : Yes
Used interface : Installed external ASPI interface

Used output format : Internal WAV Routines
Sample format : 44.100 Hz; 16 Bit; Stereo


TOC of the extracted CD

Track | Start | Length | Start sector | End sector
––––––––––––––––––––––––––––-
1 | 0:00.00 | 4:14.40 | 0 | 19089
2 | 4:14.40 | 6:23.53 | 19090 | 47867
3 | 10:38.18 | 4:04.20 | 47868 | 66187
4 | 14:42.38 | 4:22.13 | 66188 | 85850
5 | 19:04.51 | 3:39.23 | 85851 | 102298
6 | 22:43.74 | 5:23.55 | 102299 | 126578
7 | 28:07.54 | 5:11.54 | 126579 | 149957
8 | 33:19.33 | 6:41.40 | 149958 | 180072


Range status and errors

Selected range

Filename C:\Baker Gurvitz Army (1975) Elysian Encounter\Baker Gurvitz Army - Elysian Encounter.wav

Peak level 88.5 %
Range quality 100.0 %
Copy CRC C6E0E5F8
Copy OK

No errors occurred

End of status report

Baker Gurvitz Army - Elysian Encounter (1975)

Many thanks to the original releaser (sheloshim)!

(filesonic.com)
Download

(uploaded.to)
Download


Enjoy my blog (Rock, Jazz, Pop, Oldies) >