Subcategories

Barrence Whitfield & The Savages - Under The Savage Sky (2015) {Bloodshoot Records BS230}

Posted By: ruskaval
Barrence Whitfield & The Savages - Under The Savage Sky (2015) {Bloodshoot Records BS230}

Barrence Whitfield & The Savages - Under The Savage Sky (2015) {Bloodshoot Records BS230}
EAC rip (secure mode) | FLAC (tracks)+CUE+LOG -> 258 Mb | MP3 @320 -> 85 Mb
Full Artwork @ 600 dpi (jpg) -> 36 Mb | 5% repair rar
© 2015 Bloodshoot Records | BS230
Rock / Rock & Roll / Rhythm & Blues / Rockabilly / Soul

Since the mid-'80s, Barrence Whitfield has dedicated his life to reminding people that rock & roll and rhythm & blues are not separate but equal institutions, but healthy branches of the same tree; on-stage or in the studio, Whitfield howls vintage R&B tunes with the fury of a hot-wired rock band, and belts out vintage-style rock with a healthy portion of swagger and soul. In Whitfield's world, it's all loud and furious, and makes you want to dance, and really, who doesn't want some of that in their life? After a detour through other projects, Whitfield resurrected the Savages in 2011, and 2015's Under the Savage Sky, the group's third album since returning to duty, stands proudly alongside mid-'80s landmarks like Dig Yourself and Ow! Ow! Ow! as a master class in souped-up and full-bodied roadhouse rocking.

Whitfield turned 60 not long after this album came out, but you'd never guess by listening to it; he can still shout with the best of them, and if he isn't always subtle, he's not here for introspection but to get the dancefloor shaking, and that's what he does anytime he steps to the mike. And the band – guitarist Peter Greenberg (also one of the group's primary songwriters), bassist Phil Lenker, drummer Andy Jody, and saxman Tom Quartulli – roars just as loud and proud as the frontman, conjuring the glorious sound of a crowded bar in full celebratory mania on a Saturday night. The production captures the raucous sound of the Savages' live show with good and greasy accuracy, and when Barrence sings "It's no sin to lose control," he's neatly summed up what's great about this band – and this album. Those who still believe that rock & roll can and should make you move ought to put Under the Savage Sky on their playlists pronto; it's the raw real thing.

Personnel:

Savages:

Barrence Whitfield: Vocals
Peter Greenberg: Guitar
Phil Lenker: bass
Andy Jody: drums
Tom Quartulli: Saxophone

With:
Ricky Nye: Piano, Organ
Hitomi Taguchi: Trumpet

TRACKLIST:

01. Willow
02. I'm a Full Grown Man
03. The Claw
04. Rock 'N' Roll Baby
05. Adjunct Street
06. The Wolf Pack
07. Incarceration Casserole
08. Angry Hands
09. Bad New Perfume
10. Katy Didn't
11. I'm a Good Man
12. Full Moon in the Daylight Sky

Exact Audio Copy V1.0 beta 3 from 29. August 2011

EAC extraction logfile from 3. October 2015, 12:49

Barrence Whitfield & The Savages / Under the Savage Sky

Used drive : PLEXTOR DVDR PX-891SA Adapter: 4 ID: 0

Read mode : Secure
Utilize accurate stream : Yes
Defeat audio cache : Yes
Make use of C2 pointers : No

Read offset correction : 6
Overread into Lead-In and Lead-Out : No
Fill up missing offset samples with silence : Yes
Delete leading and trailing silent blocks : No
Null samples used in CRC calculations : Yes
Used interface : Native Win32 interface for Win NT & 2000
Gap handling : Appended to previous track

Used output format : User Defined Encoder
Selected bitrate : 128 kBit/s
Quality : High
Add ID3 tag : No
Command line compressor : C:\Program Files (x86)\Exact Audio Copy\FLAC\FLAC.EXE
Additional command line options : -8 -V -T "ARTIST=%artist%" -T "TITLE=%title%" -T "ALBUM=%albumtitle%" -T "DATE=%year%" -T "TRACKNUMBER=%tracknr%" -T "TOTALTRACKS=%numtracks%" -T "GENRE=%genre%" -T "ALBUMARTIST=%albumartist%" -T "ALBUM ARTIST=%albumartist%" -T "COMMENT=EAC Secure Mode, Test & Copy, AccurateRip, FLAC -8" %source%


TOC of the extracted CD

Track | Start | Length | Start sector | End sector
––––––––––––––––––––––––––––-
1 | 0:00.00 | 2:31.31 | 0 | 11355
2 | 2:31.31 | 3:06.51 | 11356 | 25356
3 | 5:38.07 | 2:06.26 | 25357 | 34832
4 | 7:44.33 | 2:00.60 | 34833 | 43892
5 | 9:45.18 | 4:19.70 | 43893 | 63387
6 | 14:05.13 | 4:10.59 | 63388 | 82196
7 | 18:15.72 | 3:08.33 | 82197 | 96329
8 | 21:24.30 | 3:58.68 | 96330 | 114247
9 | 25:23.23 | 2:32.18 | 114248 | 125665
10 | 27:55.41 | 2:27.72 | 125666 | 136762
11 | 30:23.38 | 2:19.00 | 136763 | 147187
12 | 32:42.38 | 3:02.44 | 147188 | 160881


Track 1

Filename L:\flac rips\01 - Willow.wav

Pre-gap length 0:00:02.00

Peak level 88.7 %
Extraction speed 3.6 X
Track quality 99.9 %
Test CRC E6229CCC
Copy CRC E6229CCC
Accurately ripped (confidence 1) [D62DE287] (AR v2)
Copy OK

Track 2

Filename L:\flac rips\02 - I'm A Full Grown Man.wav

Pre-gap length 0:00:00.22

Peak level 88.7 %
Extraction speed 5.2 X
Track quality 100.0 %
Test CRC 6C2AE6BB
Copy CRC 6C2AE6BB
Accurately ripped (confidence 1) [A4750101] (AR v2)
Copy OK

Track 3

Filename L:\flac rips\03 - The Claw.wav

Peak level 88.7 %
Extraction speed 5.2 X
Track quality 100.0 %
Test CRC 91C8D493
Copy CRC 91C8D493
Accurately ripped (confidence 1) [4879714A] (AR v2)
Copy OK

Track 4

Filename L:\flac rips\04 - Rock and Roll Baby.wav

Pre-gap length 0:00:00.37

Peak level 88.7 %
Extraction speed 3.9 X
Track quality 99.9 %
Test CRC 72C6972D
Copy CRC 72C6972D
Accurately ripped (confidence 1) [730DA251] (AR v2)
Copy OK

Track 5

Filename L:\flac rips\05 - Adjunct Street.wav

Pre-gap length 0:00:01.04

Peak level 88.7 %
Extraction speed 5.4 X
Track quality 99.9 %
Test CRC 4C3F1303
Copy CRC 4C3F1303
Accurately ripped (confidence 1) [B31EB3EE] (AR v2)
Copy OK

Track 6

Filename L:\flac rips\06 - The Wolf Pack.wav

Pre-gap length 0:00:00.16

Peak level 88.7 %
Extraction speed 7.0 X
Track quality 100.0 %
Test CRC 10FAC5E2
Copy CRC 10FAC5E2
Accurately ripped (confidence 1) [88CD1E55] (AR v2)
Copy OK

Track 7

Filename L:\flac rips\07 - Incarceration Casserole.wav

Pre-gap length 0:00:02.17

Peak level 88.7 %
Extraction speed 7.0 X
Track quality 100.0 %
Test CRC 4208F483
Copy CRC 4208F483
Accurately ripped (confidence 1) [B4685CD4] (AR v2)
Copy OK

Track 8

Filename L:\flac rips\08 - Angry Hands.wav

Peak level 88.7 %
Extraction speed 7.7 X
Track quality 100.0 %
Test CRC A50C618A
Copy CRC A50C618A
Accurately ripped (confidence 1) [B47F4E9C] (AR v2)
Copy OK

Track 9

Filename L:\flac rips\09 - Bad News Perfume.wav

Pre-gap length 0:00:00.14

Peak level 88.7 %
Extraction speed 7.5 X
Track quality 100.0 %
Test CRC 2AF3F15A
Copy CRC 2AF3F15A
Accurately ripped (confidence 1) [CFA83391] (AR v2)
Copy OK

Track 10

Filename L:\flac rips\10 - Katy Didn't.wav

Pre-gap length 0:00:00.38

Peak level 88.7 %
Extraction speed 7.6 X
Track quality 100.0 %
Test CRC 79AC5118
Copy CRC 79AC5118
Accurately ripped (confidence 1) [E14C30C5] (AR v2)
Copy OK

Track 11

Filename L:\flac rips\11 - I'm A Good Man.wav

Pre-gap length 0:00:00.67

Peak level 88.7 %
Extraction speed 7.8 X
Track quality 100.0 %
Test CRC E6EFEADB
Copy CRC E6EFEADB
Accurately ripped (confidence 1) [A0929641] (AR v2)
Copy OK

Track 12

Filename L:\flac rips\12 - Full Moon in the Daylight Sky.wav

Pre-gap length 0:00:00.22

Peak level 88.7 %
Extraction speed 6.5 X
Track quality 99.9 %
Test CRC 87E400D0
Copy CRC 87E400D0
Accurately ripped (confidence 1) [FBDE360F] (AR v2)
Copy OK


All tracks accurately ripped

No errors occurred

End of status report

==== Log checksum 26341A21BE10420E44BFC0CC6301CB1FC35EED0A2EA2D18AABBBBFC1FF9CE399 ====


Barrence Whitfield & The Savages - Under The Savage Sky (2015) {Bloodshoot Records BS230}

Barrence Whitfield & The Savages - Under The Savage Sky (2015) {Bloodshoot Records BS230}



===