Tags
Language
Tags

Be Bop Deluxe - Axe Victim (1974) {2008 Harvest Japan Mini LP TOCP-70358}

Posted By: ruskaval
Be Bop Deluxe - Axe Victim (1974) {2008 Harvest Japan Mini LP TOCP-70358}

Be Bop Deluxe - Axe Victim (1974) {2008 Harvest Japan Mini LP TOCP-70358}
EAC rip (secure mode) | FLAC (tracks)+CUE+LOG -> 387 Mb | MP3 @320 -> 144 Mb
Full Artwork @ 600 dpi (png) -> 119 Mb | 5% repair rar
© 1974, 2008 Harvest / EMI Music Japan / Toshiba | TOCP-70358 | Mini LP
Rock / Art Rock / Contemporary Pop

When Be Bop Deluxe's first album was released during the glam rock wave in 1974 and the band (then comprised of Bill Nelson and Ian Parkin on guitars, Robert Bryan on bass, and Nicholas Chatterton-Dew on drums) turned up on the back of the record cover in heavy makeup, it was viewed as being in the David Bowie mold, which certainly took in Nelson's thin but confident tenor vocals and the uptempo rock approach, and even ballads like "Adventures in a Yorkshire Landscape" that sounded a lot like Bowie's "Rock 'n' Roll Suicide."
Be Bop Deluxe - Axe Victim (1974) {2008 Harvest Japan Mini LP TOCP-70358}

But it was already obvious that Nelson was an unusually lyrical guitar slinger, and in fact the tunes often took a back seat to his sometimes jazzy, sometimes metal-ish excursions. He was, as he sang, "an axe victim," but at the same time, Be Bop Deluxe's musical identity was uncertain.
Be Bop Deluxe - Axe Victim (1974) {2008 Harvest Japan Mini LP TOCP-70358}


tracklist:
01 - Axe Victim
02 - Love Is Swift Arrows
03 - Jet Silver And The Dolls Of Venus
04 - Third Floor Heaven
05 - Night Creatures
06 - Rocket Cathedrals
07 - Adventures In A Yorkshire Landscape
08 - Jets At Dawn
09 - No Trains To Heaven
10 - Darkness (L'Immoraliste)
11 - Piece Of Mine (bonus track)
12 - Mill Street Junction (bonus track)
13 - Adventures In A Yorkshire Landscape (bonus track)

Exact Audio Copy V0.99 prebeta 4 from 23. January 2008

EAC extraction logfile from 13. January 2009, 1:38

Be Bop Deluxe / Axe Victim {Japan TOCP-70358}

Used drive : ASUS DRW-2014L1 Adapter: 0 ID: 3

Read mode : Secure
Utilize accurate stream : Yes
Defeat audio cache : Yes
Make use of C2 pointers : No

Read offset correction : 6
Overread into Lead-In and Lead-Out : No
Fill up missing offset samples with silence : Yes
Delete leading and trailing silent blocks : No
Null samples used in CRC calculations : Yes
Used interface : Installed external ASPI interface
Gap handling : Appended to previous track

Used output format : User Defined Encoder
Selected bitrate : 1024 kBit/s
Quality : High
Add ID3 tag : No
Command line compressor : C:\Program Files\FLAC\flac.exe
Additional command line options : -8 -V -T "ARTIST=%a" -T "TITLE=%t" -T "ALBUM=%g" -T "DATE=%y" -T "TRACKNUMBER=%n" -T "GENRE=%m" -T "COMMENT=EAC FLAC -8" %s


TOC of the extracted CD

Track | Start | Length | Start sector | End sector
––––––––––––––––––––––––––––-
1 | 0:00.00 | 5:14.72 | 0 | 23621
2 | 5:14.72 | 4:12.30 | 23622 | 42551
3 | 9:27.27 | 4:10.43 | 42552 | 61344
4 | 13:37.70 | 2:27.70 | 61345 | 72439
5 | 16:05.65 | 3:34.70 | 72440 | 88559
6 | 19:40.60 | 3:00.72 | 88560 | 102131
7 | 22:41.57 | 3:23.13 | 102132 | 117369
8 | 26:04.70 | 7:19.60 | 117370 | 150354
9 | 33:24.55 | 6:39.12 | 150355 | 180291
10 | 40:03.67 | 3:22.03 | 180292 | 195444
11 | 43:25.70 | 5:13.00 | 195445 | 218919
12 | 48:38.70 | 4:43.67 | 218920 | 240211
13 | 53:22.62 | 7:56.53 | 240212 | 275964


Track 1

Filename D:\EAC FLAC FILES\01 - Axe Victim.wav

Pre-gap length 0:00:02.00

Peak level 100.0 %
Track quality 100.0 %
Test CRC CBDA8FD2
Copy CRC CBDA8FD2
Copy OK

Track 2

Filename D:\EAC FLAC FILES\02 - Love Is Swift Arrows.wav

Pre-gap length 0:00:01.65

Peak level 85.3 %
Track quality 100.0 %
Test CRC 2C26E0DE
Copy CRC 2C26E0DE
Copy OK

Track 3

Filename D:\EAC FLAC FILES\03 - Jet Silver And The Dolls Of Venus.wav

Pre-gap length 0:00:00.02

Peak level 96.5 %
Track quality 100.0 %
Test CRC FB830D7F
Copy CRC FB830D7F
Copy OK

Track 4

Filename D:\EAC FLAC FILES\04 - Third Floor Heaven.wav

Pre-gap length 0:00:01.40

Peak level 100.0 %
Track quality 100.0 %
Test CRC 31EC6E23
Copy CRC 31EC6E23
Copy OK

Track 5

Filename D:\EAC FLAC FILES\05 - Night Creatures.wav

Pre-gap length 0:00:01.25

Peak level 99.6 %
Track quality 100.0 %
Test CRC 3A76EF6C
Copy CRC 3A76EF6C
Copy OK

Track 6

Filename D:\EAC FLAC FILES\06 - Rocket Cathedrals.wav

Pre-gap length 0:00:01.33

Peak level 95.9 %
Track quality 99.9 %
Test CRC ADCC9984
Copy CRC ADCC9984
Copy OK

Track 7

Filename D:\EAC FLAC FILES\07 - Adventures In A Yorkshire Landscape.wav

Pre-gap length 0:00:01.25

Peak level 95.9 %
Track quality 100.0 %
Test CRC 04D4312E
Copy CRC 04D4312E
Copy OK

Track 8

Filename D:\EAC FLAC FILES\08 - Jets At Dawn.wav

Pre-gap length 0:00:00.03

Peak level 99.0 %
Track quality 100.0 %
Test CRC EB491FB3
Copy CRC EB491FB3
Copy OK

Track 9

Filename D:\EAC FLAC FILES\09 - No Trains To Heaven.wav

Pre-gap length 0:00:02.03

Peak level 100.0 %
Track quality 100.0 %
Test CRC E7519805
Copy CRC E7519805
Copy OK

Track 10

Filename D:\EAC FLAC FILES\10 - Darkness (L'Immortaliste).wav

Pre-gap length 0:00:01.32

Peak level 95.5 %
Track quality 100.0 %
Test CRC EBF673EE
Copy CRC EBF673EE
Copy OK

Track 11

Filename D:\EAC FLAC FILES\11 - Piece Of Mine (Live 1977) (Bonus Track).wav

Pre-gap length 0:00:01.18

Peak level 96.6 %
Track quality 100.0 %
Test CRC 3911C38A
Copy CRC 3911C38A
Copy OK

Track 12

Filename D:\EAC FLAC FILES\12 - Mill Street Junction (Live 1977) (Bonus Track).wav

Pre-gap length 0:00:01.40

Peak level 94.4 %
Track quality 99.9 %
Test CRC 09D29271
Copy CRC 09D29271
Copy OK

Track 13

Filename D:\EAC FLAC FILES\13 - Adventures In A Yorkshire Landscape (Live 1977) (Bonus Track).wav

Pre-gap length 0:00:00.02

Peak level 83.6 %
Track quality 100.0 %
Test CRC 4C2130FA
Copy CRC 4C2130FA
Copy OK

No errors occurred

End of status report


Be Bop Deluxe - Axe Victim (1974) {2008 Harvest Japan Mini LP TOCP-70358}

Be Bop Deluxe - Axe Victim (1974) {2008 Harvest Japan Mini LP TOCP-70358}


see more Bill Nelson…


===