Subcategories

Be Bop Deluxe - Sunburst Finish (1976) {2008 Harvest Japan Mini LP TOCP-70360}

Posted By: ruskaval
Be Bop Deluxe - Sunburst Finish (1976) {2008 Harvest Japan Mini LP TOCP-70360}

Be Bop Deluxe - Sunburst Finish (1976) {2008 Harvest Japan Mini LP TOCP-70360}
EAC rip (secure mode) | FLAC (tracks)+CUE+LOG -> 359 Mb | MP3 @320 -> 135 Mb
Full Artwork @ 600 dpi (png) -> 24 Mb | 5% repair rar
© 1976, 2008 Harvest / EMI Music Japan / Toshiba | TOCP-70360 | Mini LP
Rock / Art Rock / Contemporary Pop / Prog Rock / Glam Rock

Adding keyboard player Andrew Clark to make Be Bop Deluxe a quartet, Bill Nelson finally found a balance between his virtuosic guitar playing and the demands of pop songwriting. The arrangements were still busy, but the humor of Nelson's music was on display as never before, and the songs frequently were catchy. For the first time, it began to seem that the group had a future beyond serving as a foundation for Nelson's splashy guitar work, as Be Bop Deluxe charted in the U.S. and the U.K. and even scored a Top 25 British hit with "Ships in the Night.
Be Bop Deluxe - Sunburst Finish (1976) {2008 Harvest Japan Mini LP TOCP-70360}

Be Bop Deluxe - Sunburst Finish (1976) {2008 Harvest Japan Mini LP TOCP-70360}


tracklist:
01 - Fair Exchange
02 - Heavenly Homes
03 - Ships In The Night
04 - Crying To The Sky
05 - Sleep That Burns
06 - Beauty Secrets
07 - Life In The Air Age
08 - Like An Old Blues
09 - Crystal Gazing
10 - Blazing Apostles
11 - Shine (bonus track)
12 - Speed Of The Wind (bonus track)
13 - Blue As A Jewel (bonus track)

EAC extraction logfile from 7. March 2009, 2:54 for CD
Be Bop Deluxe / Sunburst Finish

Used drive : TSSTcorpCDDVDW SH-S202N Adapter: 0 ID: 0
Read mode : Secure with NO C2, accurate stream, disable cache
Read offset correction : 6
Overread into Lead-In and Lead-Out : No

Used output format : C:\Program Files\FLAC\flac.exe (User Defined Encoder)
128 kBit/s
Additional command line options : -8 -V -T "ARTIST=%a" -T "TITLE=%t" -T "ALBUM=%g" -T "DATE=%y" -T "TRACKNUMBER=%n" -T "GENRE=%m" -T "COMMENT=EAC FLAC -8" %s

Other options :
Fill up missing offset samples with silence : Yes
Delete leading and trailing silent blocks : No
Installed external ASPI interface


Track 1
Filename C:\[EAC rip]\Be-Bop Deluxe - Sunburst Finish (1976) [flac] {Japan MiniLP}\01 - Fair Exchange.wav

Pre-gap length 0:00:02.42

Peak level 77.8 %
Track quality 99.9 %
Test CRC B9807B56
Copy CRC B9807B56
Copy OK

Track 2
Filename C:\[EAC rip]\Be-Bop Deluxe - Sunburst Finish (1976) [flac] {Japan MiniLP}\02 - Heavenly Homes.wav

Peak level 97.1 %
Track quality 100.0 %
Test CRC 9E916236
Copy CRC 9E916236
Copy OK

Track 3
Filename C:\[EAC rip]\Be-Bop Deluxe - Sunburst Finish (1976) [flac] {Japan MiniLP}\03 - Ships In The Night.wav

Peak level 100.0 %
Track quality 100.0 %
Test CRC C89682DF
Copy CRC C89682DF
Copy OK

Track 4
Filename C:\[EAC rip]\Be-Bop Deluxe - Sunburst Finish (1976) [flac] {Japan MiniLP}\04 - Crying To The Sky.wav

Peak level 72.0 %
Track quality 99.9 %
Test CRC 4C69AEA8
Copy CRC 4C69AEA8
Copy OK

Track 5
Filename C:\[EAC rip]\Be-Bop Deluxe - Sunburst Finish (1976) [flac] {Japan MiniLP}\05 - Sleep That Burns.wav

Peak level 93.4 %
Track quality 100.0 %
Test CRC 95E9BAD5
Copy CRC 95E9BAD5
Copy OK

Track 6
Filename C:\[EAC rip]\Be-Bop Deluxe - Sunburst Finish (1976) [flac] {Japan MiniLP}\06 - Beauty Secrets.wav

Peak level 78.8 %
Track quality 100.0 %
Test CRC 7F5C8DCE
Copy CRC 7F5C8DCE
Copy OK

Track 7
Filename C:\[EAC rip]\Be-Bop Deluxe - Sunburst Finish (1976) [flac] {Japan MiniLP}\07 - Life In The Air Age.wav

Peak level 89.4 %
Track quality 100.0 %
Test CRC 680B7D56
Copy CRC 680B7D56
Copy OK

Track 8
Filename C:\[EAC rip]\Be-Bop Deluxe - Sunburst Finish (1976) [flac] {Japan MiniLP}\08 - Like An Old Blues.wav

Peak level 92.2 %
Track quality 100.0 %
Test CRC 0F651BBD
Copy CRC 0F651BBD
Copy OK

Track 9
Filename C:\[EAC rip]\Be-Bop Deluxe - Sunburst Finish (1976) [flac] {Japan MiniLP}\09 - Crystal Gazing.wav

Pre-gap length 0:00:01.08

Peak level 94.9 %
Track quality 100.0 %
Test CRC B28E2A10
Copy CRC B28E2A10
Copy OK

Track 10
Filename C:\[EAC rip]\Be-Bop Deluxe - Sunburst Finish (1976) [flac] {Japan MiniLP}\10 - Blazing Apostles.wav

Peak level 100.0 %
Track quality 100.0 %
Test CRC 8F01CB10
Copy CRC 8F01CB10
Copy OK

Track 11
Filename C:\[EAC rip]\Be-Bop Deluxe - Sunburst Finish (1976) [flac] {Japan MiniLP}\11 - Shine (bonus track).wav

Peak level 99.8 %
Track quality 100.0 %
Test CRC 9FB51CBD
Copy CRC 9FB51CBD
Copy OK

Track 12
Filename C:\[EAC rip]\Be-Bop Deluxe - Sunburst Finish (1976) [flac] {Japan MiniLP}\12 - Speed Of The Wind (bonus track).wav

Pre-gap length 0:00:00.72

Peak level 86.6 %
Track quality 100.0 %
Test CRC 9FA242F3
Copy CRC 9FA242F3
Copy OK

Track 13
Filename C:\[EAC rip]\Be-Bop Deluxe - Sunburst Finish (1976) [flac] {Japan MiniLP}\13 - Blue As A Jewel (bonus track).wav

Pre-gap length 0:00:00.74

Peak level 87.8 %
Track quality 100.0 %
Test CRC 7A7DDC9C
Copy CRC 7A7DDC9C
Copy OK

No errors occured


End of status report


Be Bop Deluxe - Sunburst Finish (1976) {2008 Harvest Japan Mini LP TOCP-70360}

Be Bop Deluxe - Sunburst Finish (1976) {2008 Harvest Japan Mini LP TOCP-70360}


More Bill Nelson…

NEXT - > Be Bop Deluxe - Modern Music (1976) {Japan Mini LP TOCP-70361}