Subcategories

Ludwig van Beethoven - Violin Concerto, Kreutzer Sonata - Bronislaw Huberman (2017) {Warner Classics-Parlophone rec 1936}

Posted By: ruskaval
Ludwig van Beethoven - Violin Concerto, Kreutzer Sonata - Bronislaw Huberman (2017) {Warner Classics-Parlophone rec 1936}

Ludwig van Beethoven - Violin Concerto, Kreutzer Sonata - Bronislaw Huberman (2017) {Warner Classics-Parlophone rec 1936}
EAC rip (secure mode) | FLAC (tracks)+CUE+LOG -> 317 Mb | MP3 @320 -> 169 Mb
Full Artwork @ 300 dpi (png) -> 60 Mb | 5% repair rar
© 1936, 2017 Warner Classics / Parlophone | 0190295895167
Classical / Viennese School / Violin / Piano

HISTORICAL RECORDINGS · MONO · RECORDED IN *1930 & 1934 NEW REMASTERING FROM ORIGINAL MASTERS IN 24-BIT / 96KHZ BY STUDIO ART ET SON, PARIS. “You simply have to hear Huberman’s recording,” wrote Gramophone of this incandescent 1934 interpretation of Beethoven’s Violin Concerto. At the age of 14 Huberman, born in Poland in 1882, had dazzled Brahms with his playing. The prodigy went on to become both a towering violinist and a committed humanitarian activist, rescuing musicians from Nazi Germany to form the future Israel Philharmonic Orchestra. Completing this newly remastered Beethoven disc, Huberman is partnered in the Kreutzer Sonata by another legendary Polish-born musician, Ignaz Friedman.
Ludwig van Beethoven - Violin Concerto, Kreutzer Sonata - Bronislaw Huberman (2017) {Warner Classics-Parlophone rec 1936}


Musicians:
Composer: Ludwig van Beethoven
Performer: Bronislaw Huberman (violin), Ignaz Friedman (piano)
Conductor: George Szell
Orchestra: Vienna Philharmonic Orchestra

Works on This Recording
1.
Concerto for Violin in D major, Op. 61 by Ludwig van Beethoven
Performer: Bronislaw Huberman (Violin)
Conductor: George Szell
Orchestra/Ensemble: Vienna Philharmonic Orchestra
Period: Classical
Written: 1806; Vienna, Austria
Date of Recording: 1930
2.
Sonata for Violin and Piano no 9 in A major, Op. 47 "Kreutzer" by Ludwig van Beethoven
Performer: Ignaz Friedman (Piano), Bronislaw Huberman (Violin)
Period: Classical
Written: 1802-1803; Vienna, Austria
Date of Recording: 1934

Exact Audio Copy V1.3 from 2. September 2016

EAC extraction logfile from 31. March 2017, 7:04

Beethoven / Violin Concerto, Kreutzer Sonata

Used drive : ASUS DRW-24B1ST i Adapter: 1 ID: 0

Read mode : Secure
Utilize accurate stream : Yes
Defeat audio cache : Yes
Make use of C2 pointers : No

Read offset correction : 6
Overread into Lead-In and Lead-Out : No
Fill up missing offset samples with silence : Yes
Delete leading and trailing silent blocks : No
Null samples used in CRC calculations : Yes
Used interface : Native Win32 interface for Win NT & 2000
Gap handling : Appended to previous track

Used output format : User Defined Encoder
Selected bitrate : 128 kBit/s
Quality : High
Add ID3 tag : No
Command line compressor : C:\Program Files (x86)\Exact Audio Copy\Flac\flac.exe
Additional command line options : -8 -V -T "ARTIST=%artist%" -T "TITLE=%title%" -T "ALBUM=%albumtitle%" -T "DATE=%year%" -T "TRACKNUMBER=%tracknr%" -T "TOTALTRACKS=%numtracks%" -T "GENRE=%genre%" -T "ALBUMARTIST=%albumartist%" -T "ALBUM ARTIST=%albumartist%" -T "COMMENT=EAC Secure Mode, Test & Copy, AccurateRip, FLAC -8" %source%


TOC of the extracted CD

Track | Start | Length | Start sector | End sector
––––––––––––––––––––––––––––-
1 | 0:00.00 | 21:10.34 | 0 | 95283
2 | 21:10.34 | 9:13.50 | 95284 | 136808
3 | 30:24.09 | 8:34.14 | 136809 | 175372
4 | 38:58.23 | 10:46.54 | 175373 | 223876
5 | 49:45.02 | 12:54.08 | 223877 | 281934
6 | 62:39.10 | 8:09.58 | 281935 | 318667


Track 1

Filename D:\_Post\Beethoven_Huberman\01 - Violin Concerto in D major, op.61 - I. Allegro ma non troppo.wav

Pre-gap length 0:00:02.00

Peak level 82.3 %
Extraction speed 7.4 X
Track quality 100.0 %
Test CRC 5426A2EE
Copy CRC 5426A2EE
Track not present in AccurateRip database
Copy OK

Track 2

Filename D:\_Post\Beethoven_Huberman\02 - Violin Concerto in D major, op.61 - II. Larghetto.wav

Peak level 53.7 %
Extraction speed 8.8 X
Track quality 100.0 %
Test CRC 1E8F819D
Copy CRC 1E8F819D
Track not present in AccurateRip database
Copy OK

Track 3

Filename D:\_Post\Beethoven_Huberman\03 - Violin Concerto in D major, op.61 - III. Rondo allegro.wav

Peak level 73.0 %
Extraction speed 9.5 X
Track quality 100.0 %
Test CRC 688F3B3E
Copy CRC 688F3B3E
Track not present in AccurateRip database
Copy OK

Track 4

Filename D:\_Post\Beethoven_Huberman\04 - Violin Sonata No. 9 in A major 'Kreutzer' op.47 - I. Adagio sostenuto - Presto.wav

Pre-gap length 0:00:07.00

Peak level 65.9 %
Extraction speed 9.5 X
Track quality 99.9 %
Test CRC 6D20DEB3
Copy CRC 6D20DEB3
Track not present in AccurateRip database
Copy OK

Track 5

Filename D:\_Post\Beethoven_Huberman\05 - Violin Sonata No. 9 in A major 'Kreutzer' op.47 - II. Andante con variazioni.wav

Peak level 57.5 %
Extraction speed 11.1 X
Track quality 100.0 %
Test CRC 3D6BBE85
Copy CRC 3D6BBE85
Track not present in AccurateRip database
Copy OK

Track 6

Filename D:\_Post\Beethoven_Huberman\06 - Violin Sonata No. 9 in A major 'Kreutzer' op.47 - III. Presto.wav

Peak level 61.7 %
Extraction speed 11.4 X
Track quality 100.0 %
Test CRC 5C087B6E
Copy CRC 5C087B6E
Track not present in AccurateRip database
Copy OK


None of the tracks are present in the AccurateRip database

No errors occurred

End of status report

–– CUETools DB Plugin V2.1.6

[CTDB TOCID: FNF9SuRMpSvPO7GzcQ_IxxNs2Y8-] found
Submit result: FNF9SuRMpSvPO7GzcQ_IxxNs2Y8- has been confirmed
Track | CTDB Status
1 | (1/1) Accurately ripped
2 | (1/1) Accurately ripped
3 | (1/1) Accurately ripped
4 | (1/1) Accurately ripped
5 | (1/1) Accurately ripped
6 | (1/1) Accurately ripped


==== Log checksum 8DD51EDFAEFA9AE457644F19A92698665A653DD0943FF66EC0B78F3E24CCEF7F ====


Ludwig van Beethoven - Violin Concerto, Kreutzer Sonata - Bronislaw Huberman (2017) {Warner Classics-Parlophone rec 1936}

Ludwig van Beethoven - Violin Concerto, Kreutzer Sonata - Bronislaw Huberman (2017) {Warner Classics-Parlophone rec 1936}



===