Subcategories
Please register here if you want to download anything!

If domain in your address bar is different from the list below
PLEASE LEAVE THAT SITE IMMEDIATELY
❗IT'S A DANGEROUS FAKE❗



Spicy Magazines for Men! ;-)

Bernard Purdie - Soul Is... Pretty Purdie (1972) {Flying Dutchman Japan UVPR-20152}

Posted By: ruskaval
Bernard Purdie - Soul Is... Pretty Purdie (1972) {Flying Dutchman Japan UVPR-20152}

Bernard Purdie - Soul Is… Pretty Purdie (1972) {Flying Dutchman Japan UVPR-20152}
EAC rip (secure mode) | FLAC (tracks)+CUE+LOG -> 235 Mb | MP3 @320 -> 80 Mb
Full Artwork @ 600 dpi (jpg) -> 29 Mb | 5% repair rar
© 1972, 2019 Flying Dutchman / Solid Records / Ultra-Vibe Japan | UVPR-20152
Jazz / Soul Jazz / Jazz Funk / Drums

A wild one! After the straight hard funk of some of his earlier recordings as a leader, Bernard "Pretty" Purdie breaks out here in a compelling album of soul jazz tracks done in a number of styles. The approach is sort of big studio funk – with some cuts that have a harder sound, and others that open up in a groove that's gotten a lot more complicated than the early days. Horace Ott arranges, conducts, and plays electric piano, and Richard Tee plays organ on a number of cuts – but the real charmer is Purdie, whose work on drums is always great! Funky tracks include "Heavy Soul Slinger", a medley of "What's Goin On" and Ain't No Sunshine", and "Good Livin". Also features a cover of Aretha Franklin's "Day Dreamin", plus the extended "Song For Aretha", which is Purdie's extended tribute to Aretha (with whom he'd recorded), and one that features a very strange monologue!
Bernard Purdie - Soul Is... Pretty Purdie (1972) {Flying Dutchman Japan UVPR-20152}


Personnel
Bernard Purdie - drums, vocals
Danny Moore, Ernie Royal - trumpet (tracks 2 & 5)
Garnett Brown - trombone (tracks 2 & 5)
Jimmy Powell - alto saxophone (tracks 2 & 5)
Charlie Brown (tracks 1, 3, 4, 6 & 7), Harold Vick (tracks 2 & 5), Seldon Powell (tracks 2 & 5) - tenor saxophone
Arthur Clarke - baritone saxophone (tracks 2 & 5)
Cornell Dupree (tracks 2 & 5), Jay Berliner (tracks 2 & 5), Billy Nichols (tracks 1, 3, 4, 6 & 7), Lloyd Davis (tracks 1, 3, 4, 6 & 7) - guitar
Horace Ott - electric piano, piano, arranger, conductor
Paul Griffin (tracks 1, 4 & 6), Richard Tee (Tracks 2 & 5) - organ
Jerry Jemmott (tracks 2 & 5), Paul Martinez - electric bass (tracks 1, 3, 4, 6 & 7)
Norman Pride - congas, bongos
Gayle Dixon, Julien Barber, Noel DaCosta, Sanford Allen - violin (tracks 2 & 5)
Alfred Brown, Selwart Clarke - viola (tracks 2 & 5)
Kermit Moore, Ronald Lipscomb - cello (tracks 2 & 5)
Ralph MacDonald - bongos (track 2 & 5)
Gordon Powell - percussion (tracks 2 & 5)
Barbara Massey, Carl Hall, Eileen Gilbert, Hilda Harris, Maeretha Stewart - backing vocals (track 5)

Tracks
01. What's Going On-Ain't Sunshine When She's Gone
02. Don't Go
03. Good Livin'
04. Day Dreaming
05. Song For Aretha
06. Put It Where You Want It
07. Heavy Soul Slinger

Exact Audio Copy V1.3 from 2. September 2016

EAC extraction logfile from 3. August 2019, 16:08

Bernard Purdie / SouI Is…Pretty Purdie

Used Drive : ASUS DRW-24D5MT Adapter: 1 ID: 0

Read mode : Secure
Utilize accurate stream : Yes
Defeat audio cache : Yes
Make use of C2 pointers : No

Read offset correction : 6
Overread into Lead-In and Lead-Out : No
Fill up missing offset samples with silence : Yes
Delete leading and trailing silent blocks : No
Null samples used in CRC calculations : Yes
Used interface : Native Win32 interface for Win NT & 2000
Gap handling : Appended to previous track

Used output format : User Defined Encoder
Selected bitrate : 128 kBit/s
Quality : High
Add ID3 tag : No
Command line compressor : C:\Users\Тимур\Downloads\FLAC_1.3.2\flac-1.3.2-git-20170314-x64-icl\flac.exe
Additional command line options : -8 -V -T "ARTIST=%artist%" -T "TITLE=%title%" -T "ALBUM=%albumtitle%" -T "DATE=%year%" -T
"TRACKNUMBER=%tracknr%" -T "GENRE=%genre%" -T "COMMENT=EAC FLAC -8" %source%


TOC of the extracted CD

Track | Start | Length | Start sector | End sector
––––––––––––––––––––––––––––––––––-
1 | 0:00.00 | 4:01.44 | 0 | 18118
2 | 4:01.44 | 3:19.06 | 18119 | 33049
3 | 7:20.50 | 3:37.45 | 33050 | 49369
4 | 10:58.20 | 5:06.17 | 49370 | 72336
5 | 16:04.37 | 7:32.54 | 72337 | 106290
6 | 23:37.16 | 5:16.52 | 106291 | 130042
7 | 28:53.68 | 4:19.33 | 130043 | 149500


Track 1

Filename C:\Users\Тимур\Desktop\EAC temp\01 What's Going On-Ain't Sunshine When She's Gone.wav

Pre-gap length 0:00:02.00

Peak level 97.6 %
Extraction speed 4.5 X
Track quality 100.0 %
Test CRC 5ADA47A4
Copy CRC 5ADA47A4
Accurately ripped (confidence 1) [3AD6A9E8] (AR v2)
Copy OK

Track 2

Filename C:\Users\Тимур\Desktop\EAC temp\02 Don't Go.wav

Peak level 97.6 %
Extraction speed 4.8 X
Track quality 100.0 %
Test CRC FE387B61
Copy CRC FE387B61
Accurately ripped (confidence 1) [B39A38B6] (AR v2)
Copy OK

Track 3

Filename C:\Users\Тимур\Desktop\EAC temp\03 Good Livin'.wav

Peak level 97.6 %
Extraction speed 5.2 X
Track quality 100.0 %
Test CRC 0D7E82E0
Copy CRC 0D7E82E0
Accurately ripped (confidence 1) [327D5D0E] (AR v2)
Copy OK

Track 4

Filename C:\Users\Тимур\Desktop\EAC temp\04 Day Dreaming.wav

Peak level 97.6 %
Extraction speed 5.8 X
Track quality 100.0 %
Test CRC 4153A9B2
Copy CRC 4153A9B2
Accurately ripped (confidence 1) [09D9ADCE] (AR v2)
Copy OK

Track 5

Filename C:\Users\Тимур\Desktop\EAC temp\05 Song For Aretha.wav

Peak level 97.6 %
Extraction speed 6.6 X
Track quality 100.0 %
Test CRC CCCB4BAF
Copy CRC CCCB4BAF
Accurately ripped (confidence 1) [CBACECD4] (AR v2)
Copy OK

Track 6

Filename C:\Users\Тимур\Desktop\EAC temp\06 Put It Where You Want It.wav

Peak level 97.6 %
Extraction speed 6.3 X
Track quality 99.9 %
Test CRC A11F42DF
Copy CRC A11F42DF
Accurately ripped (confidence 1) [5DA122E4] (AR v2)
Copy OK

Track 7

Filename C:\Users\Тимур\Desktop\EAC temp\07 Heavy Soul Slinger.wav

Peak level 97.6 %
Extraction speed 7.0 X
Track quality 100.0 %
Test CRC 8ACC2DF6
Copy CRC 8ACC2DF6
Accurately ripped (confidence 1) [F60C86A5] (AR v2)
Copy OK


All tracks accurately ripped

No errors occurred

End of status report

–– CUETools DB Plugin V2.1.6

[CTDB TOCID: umKkRstyPDAfEQh6fS0Nw8qAHvo-] found
Submit result: umKkRstyPDAfEQh6fS0Nw8qAHvo- has been confirmed
Track | CTDB Status
1 | (7/7) Accurately ripped
2 | (7/7) Accurately ripped
3 | (7/7) Accurately ripped
4 | (7/7) Accurately ripped
5 | (7/7) Accurately ripped
6 | (7/7) Accurately ripped
7 | (7/7) Accurately ripped

==== Log checksum F0DD279CD9D6374DFBED5BA24A6116C213691A21A12EF189B084D28CDC873D16 ====


Bernard Purdie - Soul Is... Pretty Purdie (1972) {Flying Dutchman Japan UVPR-20152}

Bernard Purdie - Soul Is... Pretty Purdie (1972) {Flying Dutchman Japan UVPR-20152}



===