Subcategories
Tags
Language
Tags

Leonard Bernstein - West Side Story Revisited (2016) {Musica Jazz MJCD 1304 }

Posted By: ruskaval
Leonard Bernstein - West Side Story Revisited (2016) {Musica Jazz MJCD 1304 }

Leonard Bernstein - West Side Story Revisited (2016) {Musica Jazz MJCD 1304 }
EAC rip (secure mode) | FLAC (tracks)+CUE+LOG -> 473 Mb | MP3 @320 -> 192 Mb
Full Artwork @ 300 dpi (png) -> 24 Mb | 5% repair rar
© 2016 Musica Jazz | MJCD 1304
Jazz / Romantic Musical

My favorite album in my collection! The total album is AWESOME… Jazz Giants. Composed by Howard Brubeck, Leonard Bernstein, Stephen Sondheim.

discogs.com INFO

Works on This Recording & Musicians:

Leonard Bernstein - West Side Story Revisited (2016) {Musica Jazz MJCD 1304 }


Exact Audio Copy V1.1 from 23. June 2015

EAC extraction logfile from 7. November 2016, 9:17

Various Artists / West Side Story Revisited

Used drive : Optiarc DVD RW AD-7260S Adapter: 1 ID: 0

Read mode : Secure
Utilize accurate stream : Yes
Defeat audio cache : Yes
Make use of C2 pointers : No

Read offset correction : 48
Overread into Lead-In and Lead-Out : No
Fill up missing offset samples with silence : Yes
Delete leading and trailing silent blocks : No
Null samples used in CRC calculations : Yes
Used interface : Native Win32 interface for Win NT & 2000
Gap handling : Appended to previous track

Used output format : User Defined Encoder
Selected bitrate : 1024 kBit/s
Quality : High
Add ID3 tag : No
Command line compressor : C:\Program Files (x86)\Exact Audio Copy\Flac\flac.exe
Additional command line options : -8 -V -T "ARTIST=%artist%" -T "TITLE=%title%" -T "ALBUM=%albumtitle%" -T "DATE=%year%" -T "TRACKNUMBER=%tracknr%" -T "GENRE=%genre%" -T "PERFORMER=%albuminterpret%" -T "COMPOSER=%composer%" %haslyrics%–tag-from-file=LYRICS="%lyricsfile%"%haslyrics% -T "ALBUMARTIST=%albumartist%" -T "DISCNUMBER=%cdnumber%" -T "TOTALDISCS=%totalcds%" -T "TOTALTRACKS=%numtracks%" -T "COMMENT=%comment%" %source% -o %dest%


TOC of the extracted CD

Track | Start | Length | Start sector | End sector
––––––––––––––––––––––––––––-
1 | 0:00.00 | 7:45.67 | 0 | 34941
2 | 7:45.67 | 3:50.57 | 34942 | 52248
3 | 11:36.49 | 2:16.45 | 52249 | 62493
4 | 13:53.19 | 2:25.10 | 62494 | 73378
5 | 16:18.29 | 2:15.69 | 73379 | 83572
6 | 18:34.23 | 4:53.50 | 83573 | 105597
7 | 23:27.73 | 3:23.02 | 105598 | 120824
8 | 26:51.00 | 3:33.63 | 120825 | 136862
9 | 30:24.63 | 5:12.50 | 136863 | 160312
10 | 35:37.38 | 3:55.70 | 160313 | 178007
11 | 39:33.33 | 3:04.20 | 178008 | 191827
12 | 42:37.53 | 3:58.70 | 191828 | 209747
13 | 46:36.48 | 2:59.03 | 209748 | 223175
14 | 49:35.51 | 6:00.52 | 223176 | 250227
15 | 55:36.28 | 5:21.02 | 250228 | 274304
16 | 60:57.30 | 4:53.60 | 274305 | 296339
17 | 65:51.15 | 5:45.47 | 296340 | 322261
18 | 71:36.62 | 7:47.06 | 322262 | 357292


Track 1

Filename F:\Muzika\upload what\Various Artists - Bernstein - West Side Story Revisited (2016) FLAC\01 - Cal Tijader - Prologue - Jet Song.wav

Pre-gap length 0:00:02.00

Peak level 95.9 %
Extraction speed 2.8 X
Track quality 100.0 %
Test CRC 5CDD5EB9
Copy CRC 5CDD5EB9
Accurately ripped (confidence 2) [7C177748] (AR v2)
Copy OK

Track 2

Filename F:\Muzika\upload what\Various Artists - Bernstein - West Side Story Revisited (2016) FLAC\02 - Oscar Peterson - Something's Coming.wav

Pre-gap length 0:00:02.00

Peak level 100.0 %
Extraction speed 2.5 X
Track quality 99.9 %
Test CRC 74AF2FCC
Copy CRC 74AF2FCC
Accurately ripped (confidence 2) [AEE83B47] (AR v2)
Copy OK

Track 3

Filename F:\Muzika\upload what\Various Artists - Bernstein - West Side Story Revisited (2016) FLAC\03 - Leonard Bernstein - Symphonic Dances From West Side Story- IV - Mambo. Presto.wav

Peak level 100.0 %
Extraction speed 2.8 X
Track quality 100.0 %
Test CRC 3283AD9C
Copy CRC 3283AD9C
Accurately ripped (confidence 2) [04C29906] (AR v2)
Copy OK

Track 4

Filename F:\Muzika\upload what\Various Artists - Bernstein - West Side Story Revisited (2016) FLAC\04 - Slide Hampton - Maria.wav

Pre-gap length 0:00:02.00

Peak level 88.9 %
Extraction speed 2.9 X
Track quality 100.0 %
Test CRC 7B939880
Copy CRC 7B939880
Accurately ripped (confidence 2) [036869AE] (AR v2)
Copy OK

Track 5

Filename F:\Muzika\upload what\Various Artists - Bernstein - West Side Story Revisited (2016) FLAC\05 - Shirley Bassey - Tonight.wav

Pre-gap length 0:00:02.00

Peak level 99.8 %
Extraction speed 3.0 X
Track quality 100.0 %
Test CRC 837B0603
Copy CRC 837B0603
Accurately ripped (confidence 2) [28F3A4B5] (AR v2)
Copy OK

Track 6

Filename F:\Muzika\upload what\Various Artists - Bernstein - West Side Story Revisited (2016) FLAC\06 - Andre Previn & His Pals - America.wav

Pre-gap length 0:00:02.00

Peak level 51.0 %
Extraction speed 3.5 X
Track quality 100.0 %
Test CRC 921B844A
Copy CRC 921B844A
Accurately ripped (confidence 2) [C6D58947] (AR v2)
Copy OK

Track 7

Filename F:\Muzika\upload what\Various Artists - Bernstein - West Side Story Revisited (2016) FLAC\07 - Andre Previn & His Pals - Cool.wav

Pre-gap length 0:00:02.00

Peak level 42.4 %
Extraction speed 3.5 X
Track quality 100.0 %
Test CRC 84FF02FC
Copy CRC 84FF02FC
Accurately ripped (confidence 2) [5D2ADF23] (AR v2)
Copy OK

Track 8

Filename F:\Muzika\upload what\Various Artists - Bernstein - West Side Story Revisited (2016) FLAC\08 - Bill Barron - One Hand, One Heart.wav

Pre-gap length 0:00:02.00

Peak level 94.7 %
Extraction speed 3.7 X
Track quality 100.0 %
Test CRC 011D4B82
Copy CRC 011D4B82
Accurately ripped (confidence 2) [2347863C] (AR v2)
Copy OK

Track 9

Filename F:\Muzika\upload what\Various Artists - Bernstein - West Side Story Revisited (2016) FLAC\09 - Dave Brubeck Quartet feat. Paul Desmond - I Feel Pretty.wav

Pre-gap length 0:00:02.00

Peak level 75.9 %
Extraction speed 4.0 X
Track quality 100.0 %
Test CRC 49775704
Copy CRC 49775704
Accurately ripped (confidence 2) [03EF9797] (AR v2)
Copy OK

Track 10

Filename F:\Muzika\upload what\Various Artists - Bernstein - West Side Story Revisited (2016) FLAC\10 - Bill Barron - Somewhere.wav

Pre-gap length 0:00:02.00

Peak level 100.0 %
Extraction speed 4.0 X
Track quality 100.0 %
Test CRC 570122AB
Copy CRC 570122AB
Accurately ripped (confidence 2) [622EB35E] (AR v2)
Copy OK

Track 11

Filename F:\Muzika\upload what\Various Artists - Bernstein - West Side Story Revisited (2016) FLAC\11 - Stan Kenton - Officer Krupke.wav

Pre-gap length 0:00:02.00

Peak level 98.0 %
Extraction speed 3.5 X
Track quality 99.9 %
Test CRC 657E3D80
Copy CRC 657E3D80
Accurately ripped (confidence 2) [D52E3376] (AR v2)
Copy OK

Track 12

Filename F:\Muzika\upload what\Various Artists - Bernstein - West Side Story Revisited (2016) FLAC\12 - Stan Kenton - Taunting Scene.wav

Pre-gap length 0:00:02.00

Peak level 93.5 %
Extraction speed 4.2 X
Track quality 100.0 %
Test CRC 92859F2B
Copy CRC 92859F2B
Accurately ripped (confidence 2) [72CB7640] (AR v2)
Copy OK

Track 13

Filename F:\Muzika\upload what\Various Artists - Bernstein - West Side Story Revisited (2016) FLAC\13 - Leonard Bernstein - Symphonic Dances From West Side Story- IX - Finale. Adagio.wav

Pre-gap length 0:00:02.00

Peak level 29.8 %
Extraction speed 4.0 X
Track quality 100.0 %
Test CRC DF672ADD
Copy CRC DF672ADD
Accurately ripped (confidence 2) [3A3C3166] (AR v2)
Copy OK

Track 14

Filename F:\Muzika\upload what\Various Artists - Bernstein - West Side Story Revisited (2016) FLAC\14 - Howard Brubeck - Dialogues For Jazz Combo and Orchestra - Allegro.wav

Pre-gap length 0:00:04.00

Peak level 84.4 %
Extraction speed 4.6 X
Track quality 100.0 %
Test CRC 13395422
Copy CRC 13395422
Accurately ripped (confidence 2) [C7A42C8F] (AR v2)
Copy OK

Track 15

Filename F:\Muzika\upload what\Various Artists - Bernstein - West Side Story Revisited (2016) FLAC\15 - Howard Brubeck - Dialogues For Jazz Combo and Orchestra - Andante-Ballad.wav

Pre-gap length 0:00:02.00

Peak level 79.1 %
Extraction speed 4.5 X
Track quality 99.9 %
Test CRC 4E49ECAC
Copy CRC 4E49ECAC
Accurately ripped (confidence 2) [A52753DF] (AR v2)
Copy OK

Track 16

Filename F:\Muzika\upload what\Various Artists - Bernstein - West Side Story Revisited (2016) FLAC\16 - Howard Brubeck - Dialogues For Jazz Combo and Orchestra - Adagio-Ballad.wav

Pre-gap length 0:00:02.00

Peak level 71.9 %
Extraction speed 4.6 X
Track quality 99.9 %
Test CRC 35DD5A34
Copy CRC 35DD5A34
Accurately ripped (confidence 2) [DDC6D3B7] (AR v2)
Copy OK

Track 17

Filename F:\Muzika\upload what\Various Artists - Bernstein - West Side Story Revisited (2016) FLAC\17 - Howard Brubeck - Dialogues For Jazz Combo and Orchestra - Allegro-Blues.wav

Pre-gap length 0:00:02.00

Peak level 95.6 %
Extraction speed 4.9 X
Track quality 99.9 %
Test CRC E5990FDD
Copy CRC E5990FDD
Accurately ripped (confidence 2) [2473A5A9] (AR v2)
Copy OK

Track 18

Filename F:\Muzika\upload what\Various Artists - Bernstein - West Side Story Revisited (2016) FLAC\18 - Benny Goodman & Leonard Bernstein - Prelude, Fugue and Riffs.wav

Pre-gap length 0:00:04.00

Peak level 97.6 %
Extraction speed 5.7 X
Track quality 100.0 %
Test CRC 07C74F1C
Copy CRC 07C74F1C
Accurately ripped (confidence 2) [1F4AD1AB] (AR v2)
Copy OK


All tracks accurately ripped

No errors occurred

End of status report

–– CUETools DB Plugin V2.1.6

[CTDB TOCID: phY6uh_IjHDzei9_2DtLCznpXok-] found
Submit result: phY6uh_IjHDzei9_2DtLCznpXok- has been confirmed
Track | CTDB Status
1 | (7/7) Accurately ripped
2 | (7/7) Accurately ripped
3 | (7/7) Accurately ripped
4 | (7/7) Accurately ripped
5 | (7/7) Accurately ripped
6 | (7/7) Accurately ripped
7 | (7/7) Accurately ripped
8 | (7/7) Accurately ripped
9 | (7/7) Accurately ripped
10 | (7/7) Accurately ripped
11 | (7/7) Accurately ripped
12 | (7/7) Accurately ripped
13 | (7/7) Accurately ripped
14 | (7/7) Accurately ripped
15 | (7/7) Accurately ripped
16 | (7/7) Accurately ripped
17 | (7/7) Accurately ripped
18 | (7/7) Accurately ripped


==== Log checksum 6AD917E8866A878FD9D3C2838C62C257B75629D1544364531B402000A981F935 ====


Leonard Bernstein - West Side Story Revisited (2016) {Musica Jazz MJCD 1304 }

Leonard Bernstein - West Side Story Revisited (2016) {Musica Jazz MJCD 1304 }



===