Subcategories

Bill Evans - From Left To Right (1970) {Verve 557 451-2 rel 1998}

Posted By: ruskaval
Bill Evans - From Left To Right (1970) {Verve 557 451-2 rel 1998}

Bill Evans - From Left To Right (1970) {Verve 557 451-2 rel 1998}
EAC rip (secure mode) | FLAC (tracks)+CUE+LOG -> 276 Mb | MP3 @320 -> 122 Mb
Full Artwork @ 600 dpi (png) -> 225 Mb | 5% repair rar
© 1970, 1998 Verve / PolyGram | 557 451-2
Jazz / Post-Bop / Modal Music / Piano

In the '60s the jazz pianist Bill Evans would occasionally record an orchestral "easy listening" session to pay the bills, with predictably mediocre results. But FROM LEFT TO RIGHT, while certainly easy on the ears, is also one of Evans' most intriguing "lost" records, brought to us courtesy of Verve's winning "By Request" series. The novelty is that Evans plays both Fender Rhodes and acoustic piano simultaneously in real time, trading off themes and improvs with deliberative taste and, of course, rare skill. The sessions were produced by Evans' long-time, protective manager Helen Keane, so there was little danger of "selling out."

Unobtrusively arranged by Michael Leonard, this 1969 release resembles nothing so much as famed bossa nova composer Antonio Carlos Jobim's series of shimmering instrumental albums with arranger Claus Ogerman, even without those gently relentless rhythms driving every tune. Still, the highlight of this album is the dancing two-part "The Dolphin - Before & After," a non-Jobim bossa nova which allows Evans his only extended improvisations.

Personnel

Bill Evans – piano, Fender-Rhodes
Eddie Gómez – bass
Marty Morell – drums
Sam Brown – guitar
Michey Leonard – conductor, arranger
Unidentified brass, woodwinds and strings

TRACKLISTING:

01 - What Are You Doing The Rest Of Your Life?
02 - I'm All Smiles
03 - Why Did I Choose You?
04 - Soiree
05 - The Dolphin - Before
06 - The Dolphin - After
07 - Lullaby For Helene
08 - Like Someone In Love
09 - Children's Play Song
10 - What Are You Doing The Rest Of Your Life? [quartet] (bonus track)
11 - Why Did I Choose You? [quartet] (bonus track)
12 - Soiree [alternative take] (bonus track)
13 - Lullaby For Helene [quartet] (bonus track)

Exact Audio Copy V1.3 from 2. September 2016

EAC extraction logfile from 4. July 2017, 18:37

Bill Evans / From Left To Right

Used drive : TSSTcorpCDDVDW SE-208DB Adapter: 1 ID: 1

Read mode : Secure
Utilize accurate stream : Yes
Defeat audio cache : Yes
Make use of C2 pointers : No

Read offset correction : 6
Overread into Lead-In and Lead-Out : No
Fill up missing offset samples with silence : Yes
Delete leading and trailing silent blocks : No
Null samples used in CRC calculations : Yes
Used interface : Native Win32 interface for Win NT & 2000
Gap handling : Appended to previous track

Used output format : User Defined Encoder
Selected bitrate : 1024 kBit/s
Quality : High
Add ID3 tag : No
Command line compressor : C:\Program Files (x86)\FLAC Frontend\tools\flac.exe
Additional command line options : -8 -V -T "ARTIST=%artist%" -T "TITLE=%title%" -T "ALBUM=%albumtitle%" -T "DATE=%year%" -T "TRACKNUMBER=%tracknr%" -T "TOTALTRACKS=%numtracks%" -T "GENRE=%genre%" -T "ALBUMARTIST=%albumartist%" -T "ALBUM ARTIST=%albumartist%" -T "COMMENT=EAC Secure Mode, Test & Copy, AccurateRip, FLAC -8" %source%


TOC of the extracted CD

Track | Start | Length | Start sector | End sector
––––––––––––––––––––––––––––-
1 | 0:00.00 | 4:08.57 | 0 | 18656
2 | 4:08.57 | 5:47.18 | 18657 | 44699
3 | 9:56.00 | 5:08.57 | 44700 | 67856
4 | 15:04.57 | 3:28.38 | 67857 | 83494
5 | 18:33.20 | 3:10.05 | 83495 | 97749
6 | 21:43.25 | 3:11.35 | 97750 | 112109
7 | 24:54.60 | 2:55.35 | 112110 | 125269
8 | 27:50.20 | 5:43.20 | 125270 | 151014
9 | 33:33.40 | 4:21.15 | 151015 | 170604
10 | 37:54.55 | 4:49.35 | 170605 | 192314
11 | 42:44.15 | 4:20.37 | 192315 | 211851
12 | 47:04.52 | 3:30.55 | 211852 | 227656
13 | 50:35.32 | 2:39.40 | 227657 | 239621


Track 1

Filename E:\EAC_RIP\Bill Evans - From Left To Right (1970) [FLAC] {Verve 557 451-2}\01 - What Are You Doing The Rest Of Your Life_.wav

Pre-gap length 0:00:02.00

Peak level 97.4 %
Extraction speed 1.0 X
Track quality 100.0 %
Test CRC 9C194B19
Copy CRC 9C194B19
Accurately ripped (confidence 7) [10564F1D] (AR v2)
Copy OK

Track 2

Filename E:\EAC_RIP\Bill Evans - From Left To Right (1970) [FLAC] {Verve 557 451-2}\02 - I'm All Smiles.wav

Pre-gap length 0:00:03.57

Peak level 97.3 %
Extraction speed 1.1 X
Track quality 99.9 %
Test CRC C1BF49D8
Copy CRC C1BF49D8
Accurately ripped (confidence 7) [E664BE33] (AR v2)
Copy OK

Track 3

Filename E:\EAC_RIP\Bill Evans - From Left To Right (1970) [FLAC] {Verve 557 451-2}\03 - Why Did I Choose You_.wav

Pre-gap length 0:00:04.58

Peak level 100.0 %
Extraction speed 1.1 X
Track quality 99.9 %
Test CRC 836F42F1
Copy CRC 836F42F1
Accurately ripped (confidence 7) [A893921F] (AR v2)
Copy OK

Track 4

Filename E:\EAC_RIP\Bill Evans - From Left To Right (1970) [FLAC] {Verve 557 451-2}\04 - Soiree.wav

Pre-gap length 0:00:04.59

Peak level 99.9 %
Extraction speed 1.1 X
Track quality 99.9 %
Test CRC 8F9BD120
Copy CRC 8F9BD120
Accurately ripped (confidence 7) [DAC0C98C] (AR v2)
Copy OK

Track 5

Filename E:\EAC_RIP\Bill Evans - From Left To Right (1970) [FLAC] {Verve 557 451-2}\05 - The Dolphin - Before.wav

Pre-gap length 0:00:04.58

Peak level 99.9 %
Extraction speed 1.3 X
Track quality 100.0 %
Test CRC 014EC31B
Copy CRC 014EC31B
Accurately ripped (confidence 7) [D38B868A] (AR v2)
Copy OK

Track 6

Filename E:\EAC_RIP\Bill Evans - From Left To Right (1970) [FLAC] {Verve 557 451-2}\06 - The Dolphin - After.wav

Pre-gap length 0:00:04.58

Peak level 96.6 %
Extraction speed 1.4 X
Track quality 100.0 %
Test CRC D833B92F
Copy CRC D833B92F
Accurately ripped (confidence 7) [A906EFB9] (AR v2)
Copy OK

Track 7

Filename E:\EAC_RIP\Bill Evans - From Left To Right (1970) [FLAC] {Verve 557 451-2}\07 - Lullaby For Helene.wav

Pre-gap length 0:00:04.60

Peak level 98.6 %
Extraction speed 1.4 X
Track quality 100.0 %
Test CRC 23ABA68A
Copy CRC 23ABA68A
Accurately ripped (confidence 7) [22662762] (AR v2)
Copy OK

Track 8

Filename E:\EAC_RIP\Bill Evans - From Left To Right (1970) [FLAC] {Verve 557 451-2}\08 - Like Someone In Love.wav

Pre-gap length 0:00:04.58

Peak level 93.1 %
Extraction speed 1.4 X
Track quality 99.9 %
Test CRC F0401344
Copy CRC F0401344
Accurately ripped (confidence 7) [3E4FD5C4] (AR v2)
Copy OK

Track 9

Filename E:\EAC_RIP\Bill Evans - From Left To Right (1970) [FLAC] {Verve 557 451-2}\09 - Children's Play Song.wav

Pre-gap length 0:00:04.58

Peak level 99.9 %
Extraction speed 1.6 X
Track quality 100.0 %
Test CRC BB09C404
Copy CRC BB09C404
Accurately ripped (confidence 7) [6752CED3] (AR v2)
Copy OK

Track 10

Filename E:\EAC_RIP\Bill Evans - From Left To Right (1970) [FLAC] {Verve 557 451-2}\10 - What Are You Doing The Rest Of Your Life_ [quartet] (bonus track).wav

Pre-gap length 0:00:09.60

Peak level 99.9 %
Extraction speed 1.5 X
Track quality 99.9 %
Test CRC 840369DD
Copy CRC 840369DD
Accurately ripped (confidence 7) [B607D5B5] (AR v2)
Copy OK

Track 11

Filename E:\EAC_RIP\Bill Evans - From Left To Right (1970) [FLAC] {Verve 557 451-2}\11 - Why Did I Choose You_ [quartet] (bonus track).wav

Pre-gap length 0:00:04.63

Peak level 99.9 %
Extraction speed 1.7 X
Track quality 100.0 %
Test CRC E675F6CD
Copy CRC E675F6CD
Accurately ripped (confidence 7) [F804A485] (AR v2)
Copy OK

Track 12

Filename E:\EAC_RIP\Bill Evans - From Left To Right (1970) [FLAC] {Verve 557 451-2}\12 - Soiree [alternative take] (bonus track).wav

Pre-gap length 0:00:02.57

Peak level 99.9 %
Extraction speed 1.7 X
Track quality 100.0 %
Test CRC D411BE60
Copy CRC D411BE60
Accurately ripped (confidence 7) [9773845D] (AR v2)
Copy OK

Track 13

Filename E:\EAC_RIP\Bill Evans - From Left To Right (1970) [FLAC] {Verve 557 451-2}\13 - Lullaby For Helene [quartet] (bonus track).wav

Pre-gap length 0:00:04.60

Peak level 75.7 %
Extraction speed 1.6 X
Track quality 100.0 %
Test CRC ED09C336
Copy CRC ED09C336
Accurately ripped (confidence 7) [0C10438E] (AR v2)
Copy OK


All tracks accurately ripped

No errors occurred

End of status report

–– CUETools DB Plugin V2.1.6

[CTDB TOCID: iSoS4SzQRpBZ9LsLMCiXj4JOje0-] found
Submit result: iSoS4SzQRpBZ9LsLMCiXj4JOje0- has been confirmed, iSoS4SzQRpBZ9LsLMCiXj4JOje0- has been confirmed
Track | CTDB Status
1 | (244/246) Accurately ripped
2 | (245/246) Accurately ripped
3 | (245/246) Accurately ripped
4 | (245/246) Accurately ripped
5 | (246/246) Accurately ripped
6 | (245/246) Accurately ripped
7 | (245/246) Accurately ripped
8 | (245/246) Accurately ripped
9 | (244/246) Accurately ripped
10 | (244/246) Accurately ripped
11 | (246/246) Accurately ripped
12 | (244/246) Accurately ripped
13 | (243/246) Accurately ripped


==== Log checksum CF16D65270150BF7C0D06E4AF93621526EA4D0A246302807010B1478317ABD60 ====


Bill Evans - From Left To Right (1970) {Verve 557 451-2 rel 1998}

Bill Evans - From Left To Right (1970) {Verve 557 451-2 rel 1998}



===