Tags
Language
Tags

Billy Taylor - The Billy Taylor Trio with Candido (1954) {Prestige OJCCD-015-2 rel 1991}

Posted By: ruskaval
Billy Taylor - The Billy Taylor Trio with Candido (1954) {Prestige OJCCD-015-2 rel 1991}

Billy Taylor - The Billy Taylor Trio with Candido (1954) {Prestige OJCCD-015-2 rel 1991}
EAC rip (secure mode) | FLAC (tracks)+CUE+LOG -> 132 Mb | MP3 @320 -> 77 Mb
Full Artwork @ 300 dpi (jpg) -> 10 Mb | 5% repair rar
© 1954, 1991 Prestige Records / Fantasy | OJCCD-015-2
Jazz / Bop / Hard Bop / Piano

Having already dedicated half of 1953's Cross Section to numbers with Machito's band, it was no surprise that Bill Taylor's 1954 follow-up, Trio with Candido, would feature more Latin touches – this time with star Cuban conga player Candido. In line with fellow jazz pianists George Shearing and Red Garland, Taylor doesn't incorporate the Cuban clavé beat so much as he includes the percussion for accentuation.

In spite of this, Candido offers up some provocative solos, especially on the fast-paced Taylor original "A Live One," which features the pianist and percussionist trading an energetic set of fours. Medium to slow-tempo Taylor originals, though, dominate the program, including "Bit of Bedlam," where the chaos is decidedly cool. Throughout the album, Taylor uses his fleet, Teddy Wilson-informed solo chops to pleasant effect, even stretching out a bit on "Mambo Inn" to complement Candido's own lengthy workout.

Personnel
Billy Taylor (piano)
Earl May (bass)
Percy Brice (drums)
Candido (conga, bongo drums)

Recorded in Hackensack; September 7, 1954.

Tracklist:
01 - Mambo Inn
02 - Bit of Bedlam
03 - Declivity
04 - Love for sale
05 - A live one
06 - Different Bells

EAC extraction logfile from 7. February 2008, 14:15 for CD
Billy Taylor Trio / Billy Taylor Trio with Candido

Used drive : SAMSUNG CD-R/RW SW-240B Adapter: 1 ID: 1
Read mode : Secure with NO C2, accurate stream, disable cache
Read offset correction : 97
Overread into Lead-In and Lead-Out : No

Used output format : C:\Program Files\Exact Audio Copy\FLAC\flac.exe (User Defined Encoder)
320 kBit/s
Additional command line options : -V -8 -T "artist=%a" -T "title=%t" -T "album=%g" -T "date=%y" -T "tracknumber=%n" -T "genre=%m" %s

Other options :
Fill up missing offset samples with silence : Yes
Delete leading and trailing silent blocks : No
Installed external ASPI interface


Track 1
Filename C:\Documents and Settings\bt\01 - Mambo Inn.wav

Pre-gap length 0:00:02.00

Peak level 99.9 %
Track quality 100.0 %
Test CRC ACAAE0D2
Copy CRC ACAAE0D2
Copy OK

Track 2
Filename C:\Documents and Settings\bt\02 - Bit of Bedlam.wav

Pre-gap length 0:00:03.13

Peak level 99.9 %
Track quality 100.0 %
Test CRC 235B8636
Copy CRC 235B8636
Copy OK

Track 3
Filename C:\Documents and Settings\bt\03 - Declivity.wav

Pre-gap length 0:00:03.16

Peak level 99.9 %
Track quality 100.0 %
Test CRC AB4E50FD
Copy CRC AB4E50FD
Copy OK

Track 4
Filename C:\Documents and Settings\bt\04 - Love for sale.wav

Pre-gap length 0:00:02.82

Peak level 99.7 %
Track quality 100.0 %
Test CRC 0E713AF9
Copy CRC 0E713AF9
Copy OK

Track 5
Filename C:\Documents and Settings\bt\05 - A live one.wav

Pre-gap length 0:00:03.36

Peak level 100.0 %
Track quality 100.0 %
Test CRC 5670E0DB
Copy CRC 5670E0DB
Copy OK

Track 6
Filename C:\Documents and Settings\bt\06 - Different Bells.wav

Pre-gap length 0:00:03.20

Peak level 99.6 %
Track quality 100.0 %
Test CRC 1B530805
Copy CRC 1B530805
Copy OK

No errors occured


End of status report


Billy Taylor - The Billy Taylor Trio with Candido (1954) {Prestige OJCCD-015-2 rel 1991}

Billy Taylor - The Billy Taylor Trio with Candido (1954) {Prestige OJCCD-015-2 rel 1991}


see more Billy Taylor…


===