Tags
Language
Tags
June 2024
Su Mo Tu We Th Fr Sa
26 27 28 29 30 31 1
2 3 4 5 6 7 8
9 10 11 12 13 14 15
16 17 18 19 20 21 22
23 24 25 26 27 28 29
30 1 2 3 4 5 6

Black Oak Arkansas - The Definitive Rock Collection (2CD, 2006)

Posted By: Shar'EmAll
Black Oak Arkansas - The Definitive Rock Collection (2CD, 2006)

Black Oak Arkansas - The Definitive Rock Collection (2CD, 2006)
EAC | 2x FLAC-IMG+CUE+LOG > 1,18 GB | All Covers Included | MP3 CBR 320 Kbps > 269 MB
Genre: Southern Rock | Running time >113:25 min | Label: Atco/Rhino Entertainment # R2 74180

This hard-boogie Southern Rock sextet defined the genre in the '70s along with Lynyrd Skynyrd and the Allman Brothers. They were harder, wilder, funkier, and often raunchier than their like-minded contemporaries. This two-disc set includes their 1970 Top 40 hit "Jim Dandy", and the '76 standout "Strong Enough To Be Gentle", and many more…

The Definitive Rock Collection is a wonderful double-disc anthology of Black Oak Arkansas, featuring songs from throughout their career as one of the funkiest, grittiest, most psychedelic bands ever to come out of the South. This band provided the blueprint for such 80s street-metal bands as Guns N' Roses, L.A. Guns, Motley Crue, and Junkyard. True, Black Oak Arkansas lacked the musical finesse of the Allman Brothers Band, Lynyrd Skynyrd, the Marshall Tucker Band, the Outlaws, .38 Special, or even Blackfoot and Molly Hatchet, but they made up for it with an absolutely wicked sense of humor that's good to equate teasing with so that the bully doesn't get any satisfaction.

Disc 1:

01. Uncle Lijiah
02. Hot And Nasty
03. Lord Have Mercy On My Soul
04. When Electricity Came To Arkansas
05. Keep The Faith
06. Fever In My Mind
07. White Headed Woman
08. Gravel Roads
09. Fertile Woman
10. Mutants Of The Monster
11. Gettin' Kinda Cocky [live]
12. Hot Rod [live]
13. Swimmin' In Quicksand
14. Happy Hooker
15. Red Hot Lovin'

EAC extraction logfile from 3. February 2007, 15:13 for CD
Black Oak Arkansas / The Definitive Rock Collection - CD 1

Used drive : _NEC DVD_RW ND-3500AG Adapter: 0 ID: 2
Read mode : Secure with NO C2, accurate stream, disable cache
Read offset correction : 48
Overread into Lead-In and Lead-Out : No

Used output format : Internal WAV Routines
44.100 Hz; 16 Bit; Stereo

Other options :
Fill up missing offset samples with silence : Yes
Delete leading and trailing silent blocks : No
Installed external ASPI interface


Range status and errors
Selected range
Filename J:\New CD's 4\Black Oak Arkansas\Black Oak Arkansas - The Definitive Rock Collection - CD 1.wav

Peak level 100.0 %
Range quality 100.0 %
CRC 5BC260C6
Copy OK

No errors occured

End of status report

––––––––––––––––––-

[CTDB TOCID: Fi1L5u6WSaFQspP8qvTEiJ9IT7I-] found.
Track | CTDB Status
1 | (8/8) Accurately ripped
2 | (8/8) Accurately ripped
3 | (8/8) Accurately ripped
4 | (8/8) Accurately ripped
5 | (8/8) Accurately ripped
6 | (8/8) Accurately ripped
7 | (8/8) Accurately ripped
8 | (8/8) Accurately ripped
9 | (8/8) Accurately ripped
10 | (8/8) Accurately ripped
11 | (8/8) Accurately ripped
12 | (8/8) Accurately ripped
13 | (8/8) Accurately ripped
14 | (8/8) Accurately ripped
15 | (8/8) Accurately ripped
[AccurateRip ID: 0021f5ca-0181452a-e00e4d0f] found.
Track [ CRC | V2 ] Status
01 [3cfe68d9|e2b3f1e9] (03+00/15) Accurately ripped
02 [9a1cd01a|6dda9c7c] (03+00/15) Accurately ripped
03 [1381d455|c77dc924] (03+00/15) Accurately ripped
04 [a2629372|933bc44f] (03+00/15) Accurately ripped
05 [b311238d|abb93d4f] (03+00/15) Accurately ripped
06 [6c4e168f|7d095e1a] (03+00/15) Accurately ripped
07 [a7eca201|5c7346fd] (03+00/15) Accurately ripped
08 [e497767c|db72a669] (03+00/15) Accurately ripped
09 [e467237e|6831854a] (03+00/15) Accurately ripped
10 [63967210|394e7c2a] (03+00/15) Accurately ripped
11 [e50456b9|90ec6d88] (03+00/15) Accurately ripped
12 [8ba56d4e|e121375e] (03+00/15) Accurately ripped
13 [02085554|4a442475] (03+00/15) Accurately ripped
14 [75242626|387ac8df] (03+00/15) Accurately ripped
15 [968e32da|bc15c7e9] (03+00/15) Accurately ripped
Offsetted by 664:
01 [73c2ab91] (04/15) Accurately ripped
02 [bd06ba6a] (04/15) Accurately ripped
03 [7d38a5e9] (04/15) Accurately ripped
04 [2dba365e] (04/15) Accurately ripped
05 [8d8b94d5] (04/15) Accurately ripped
06 [b2ba2fff] (04/15) Accurately ripped
07 [a9cf6331] (04/15) Accurately ripped
08 [9ac35bf4] (04/15) Accurately ripped
09 [e2f0fcc6] (04/15) Accurately ripped
10 [a4abf500] (04/15) Accurately ripped
11 [e0e4d7c3] (04/15) Accurately ripped
12 [f1f79684] (04/15) Accurately ripped
13 [09a2e4cc] (04/15) Accurately ripped
14 [57c6f4f6] (04/15) Accurately ripped
15 [d6d2430a] (04/15) Accurately ripped
Offsetted by 1236:
01 [e3b5c31d] (00/15) No match (V2 was not tested)
02 [a6ab38b2] (00/15) No match (V2 was not tested)
03 [7093a82d] (00/15) No match (V2 was not tested)
04 [2e91cf56] (00/15) No match (V2 was not tested)
05 [dab75f49] (00/15) No match (V2 was not tested)
06 [e7ae7117] (00/15) No match (V2 was not tested)
07 [37c59da9] (00/15) No match (V2 was not tested)
08 [8af89860] (00/15) No match (V2 was not tested)
09 [cc178b3a] (00/15) No match (V2 was not tested)
10 [b31979d8] (00/15) No match (V2 was not tested)
11 [6d25dcca] (00/15) No match (V2 was not tested)
12 [9a8f5ced] (00/15) No match (V2 was not tested)
13 [4f6a5a38] (00/15) No match (V2 was not tested)
14 [f475227e] (00/15) No match (V2 was not tested)
15 [53949b02] (00/15) No match (V2 was not tested)

Track Peak [ CRC32 ] [W/O NULL] [ LOG ]
– 100,0 [5BC260C6] [2E5036A2] CRC32
01 98,9 [042A4461] [AC0EFFF7]
02 96,8 [CBF35B4A] [C05A6991]
03 93,3 [676983CD] [909CC3B8]
04 100,0 [7D61D12A] [03C1F2E1]
05 94,7 [BF55BD60] [874AACCC]
06 98,1 [5E61591A] [2453F98F]
07 99,9 [676EA758] [F72DBD91]
08 100,0 [40C14E20] [4D0D0F08]
09 99,6 [34CABB37] [C526EF1A]
10 100,0 [2F3EF316] [D8A2FC47]
11 90,8 [A5FBB6D4] [BC6591C8]
12 89,5 [2E6F3788] [7EBD40C0]
13 93,2 [DA5D69F4] [0103F72F]
14 94,2 [7A8D1261] [38B65937]
15 92,6 [0CF82E4A] [754B9071]



Disc 2:

16. Jim Dandy
17. High 'N' Dry
18. Sting Me
19. Son Of A Gun
20. Dixie
21. Everybody Wants To See Heaven "Nobody Wants To Die"
22. Taxman
23. Fancy Nancy
24. Black Door Man
25. Diggin' For Gold
26. Cryin' Shame [live]
27. Hey Ya'll [live]
28. Strong Enough To Be Gentle
29. Rock 'N' Roll [live]
30. So You Want To Be A Rock 'N' Roll Star

EAC extraction logfile from 3. February 2007, 15:25 for CD
Black Oak Arkansas / The Definitive Rock Collection - CD 2

Used drive : _NEC DVD_RW ND-3500AG Adapter: 0 ID: 2
Read mode : Secure with NO C2, accurate stream, disable cache
Read offset correction : 48
Overread into Lead-In and Lead-Out : No

Used output format : Internal WAV Routines
44.100 Hz; 16 Bit; Stereo

Other options :
Fill up missing offset samples with silence : Yes
Delete leading and trailing silent blocks : No
Installed external ASPI interface


Range status and errors
Selected range
Filename J:\New CD's 4\Black Oak Arkansas\Black Oak Arkansas - The Definitive Rock Collection - CD 2.wav

Peak level 100.0 %
Range quality 100.0 %
CRC 8D467DA4
Copy OK

No errors occured

End of status report

––––––––––––––––

[CTDB TOCID: QBCTinupv4r7HCElhTD0JJzAbfI-] found.
Track | CTDB Status
1 | (8/8) Accurately ripped
2 | (8/8) Accurately ripped
3 | (8/8) Accurately ripped
4 | (8/8) Accurately ripped
5 | (8/8) Accurately ripped
6 | (8/8) Accurately ripped
7 | (8/8) Accurately ripped
8 | (8/8) Accurately ripped
9 | (8/8) Accurately ripped
10 | (8/8) Accurately ripped
11 | (8/8) Accurately ripped
12 | (8/8) Accurately ripped
13 | (8/8) Accurately ripped
14 | (8/8) Accurately ripped
15 | (8/8) Accurately ripped
[AccurateRip ID: 001b7847-013ca274-e40c470f] found.
Track [ CRC | V2 ] Status
01 [554dc814|87427155] (03+00/16) Accurately ripped
02 [afeef8e2|00dd66b7] (03+00/16) Accurately ripped
03 [eb02a7e0|8fe5c0f0] (03+00/16) Accurately ripped
04 [4401c2c7|945ff58f] (03+00/16) Accurately ripped
05 [ffaaed3a|de782535] (03+00/16) Accurately ripped
06 [035093f2|d619c389] (03+00/16) Accurately ripped
07 [f9cefe10|e9a7cb81] (03+00/16) Accurately ripped
08 [7d20604e|c00fc0e3] (03+00/16) Accurately ripped
09 [ed32edb1|9f2c54f5] (02+00/15) Accurately ripped
10 [286727a5|9dd26bc3] (03+00/16) Accurately ripped
11 [15d66068|ae38b65b] (03+00/16) Accurately ripped
12 [aa76f768|30660c9d] (03+00/16) Accurately ripped
13 [9fd57226|94768bed] (03+00/16) Accurately ripped
14 [89f4458a|45bbfc01] (03+00/16) Accurately ripped
15 [15d56f64|ad2dff0b] (03+00/16) Accurately ripped
Offsetted by 664:
01 [e86ded6c] (04/16) Accurately ripped
02 [4786e4ba] (04/16) Accurately ripped
03 [1731fec8] (04/16) Accurately ripped
04 [d62d4a1f] (04/16) Accurately ripped
05 [a0dbf2ba] (04/16) Accurately ripped
06 [f7339492] (04/16) Accurately ripped
07 [d32a15b8] (04/16) Accurately ripped
08 [cf1fc6ae] (04/16) Accurately ripped
09 [21f90de1] (04/15) Accurately ripped
10 [9a97d425] (04/16) Accurately ripped
11 [dfa60ec0] (04/16) Accurately ripped
12 [32c841f0] (03/16) Accurately ripped
13 [93c2c176] (04/16) Accurately ripped
14 [0ae6a7fa] (04/16) Accurately ripped
15 [9ddf9394] (04/16) Accurately ripped
Offsetted by 670:
01 [bb7e6922] (02/16) Accurately ripped
02 [5b671c10] (02/16) Accurately ripped
03 [2ba48b22] (02/16) Accurately ripped
04 [fd47e655] (02/16) Accurately ripped
05 [89a41a1a] (02/16) Accurately ripped
06 [be08233a] (02/16) Accurately ripped
07 [0364bd42] (02/16) Accurately ripped
08 [71058dc6] (02/16) Accurately ripped
09 [c460a0ad] (02/15) Accurately ripped
10 [4b6ea145] (02/16) Accurately ripped
11 [822e97b0] (02/16) Accurately ripped
12 [b99bec7e] (03/16) Accurately ripped
13 [adde588a] (02/16) Accurately ripped
14 [ba54cc56] (02/16) Accurately ripped
15 [1073b760] (02/16) Accurately ripped
Offsetted by 1292:
01 [892b2c80] (00/16) No match (V2 was not tested)
02 [67dd848e] (00/16) No match (V2 was not tested)
03 [c8b20b94] (00/16) No match (V2 was not tested)
04 [7db92833] (00/16) No match (V2 was not tested)
05 [cd5c0bfa] (00/16) No match (V2 was not tested)
06 [421b3d42] (00/16) No match (V2 was not tested)
07 [8b254024] (00/16) No match (V2 was not tested)
08 [55bc827e] (00/16) No match (V2 was not tested)
09 [8851bd49] (00/15) No match (V2 was not tested)
10 [e7bfb1e5] (00/16) No match (V2 was not tested)
11 [198e8abb] (00/16) No match (V2 was not tested)
12 [4d3e2999] (00/16) No match (V2 was not tested)
13 [eb0a864e] (00/16) No match (V2 was not tested)
14 [6f443042] (00/16) No match (V2 was not tested)
15 [7670e0fc] (00/16) No match (V2 was not tested)

Track Peak [ CRC32 ] [W/O NULL] [ LOG ]
– 100,0 [8D467DA4] [3859100B] CRC32
01 99,4 [A286BD8A] [397382AC]
02 97,6 [9B939F2F] [877479E5]
03 98,3 [D504E509] [4CDE2D2D]
04 94,3 [BFBD320F] [90AB6F1A]
05 100,0 [BEEF4637] [9613934F]
06 99,9 [5E65BD9C] [447ED56D]
07 99,9 [946836E5] [E9A53E61]
08 94,4 [CDB3E164] [9212E1F9]
09 100,0 [83ACE5B2] [08EFF3EC]
10 100,0 [BEBE45E9] [BF5DEA79]
11 96,9 [F52C62EC] [979B64AD]
12 99,9 [7A765EB7] [D6B12733]
13 100,0 [444F123C] [0E8EFAE7]
14 94,2 [485426F1] [93CED99E]
15 99,9 [F1AE2540] [3FB62673]

DYNAMIC RANGE = 9/9


Compiled by Mason Williams
Remastered at DigiPrep by Dan Hersch, Dave Schultz and Bill Inglot

Jim "Dandy" Mangrum - lead vocals on all tracks
Stan Knight - guitar on all tracks
Pat Daugherty - bass on all tracks
Ricky Reynolds - guitar on tracks 1-28
Harvey Jett - guitar, banjo, piano, vocals on 1-17
Jimmy Henderson - guitar on tracks 22-30
Wayne Evans - drums on tracks 1-7
Tommy Aldridge - drums on tracks 8-30

Thanks to Killer Rips!
All Covers Included.