Blake Shelton - If I'm Honest (2016) {Warner Bros. 9362-49200-3}

Posted By: ruskaval
Blake Shelton - If I'm Honest (2016) {Warner Bros. 9362-49200-3}

Blake Shelton - If I'm Honest (2016) {Warner Bros. 9362-49200-3}
EAC rip (secure mode) | FLAC (tracks)+CUE+LOG -> 359 Mb | MP3 @320 -> 120 Mb
Full Artwork @ 600 dpi (jpg) -> 115 Mb | 5% repair rar
© 2016 Ten Point Productions / Warner Bros. 9362-49200-3
Country / Country Pop / Contemporary Country / Neo-Traditionalist Country

Blake Shelton veered toward the somnolent on the quite pleasing Bringing Back the Sunshine so it's not entirely surprising its 2016 sequel, If I'm Honest, is a bit crisper and livelier. Some of this brightening in attitude may be due to him lightening his load following a much-publicized 2015 divorce from singer Miranda Lambert – certainly the title suggests it's time for the singer to get down to what's real – but the electronic sheen and good times also feel like a reaction to Shelton sliding too deeply into softness. If If I'm Honest is indeed a divorce album, it's a Back in the High Life, not a Blood on the Tracks: Shelton is seizing the day, embracing his new lease on life with renewed vigor and a new love, who just happens to stop by to sing "Go Ahead and Break My Heart." Gwen Stefani's presence offers a reminder that Shelton stars on the televised singing competition The Voice, and If I'm Honest is targeted more at the mainstream audience attracted by the show than country radio proper.

That's evident not only on "Go Ahead and Break My Heart," which is an adult contemporary hit by any other name, but also a song featured in The Angry Birds Movie ("Friends," a pop tune graced by banjo), a preponderance of glimmering ballads, and smirking good-old-boy humor. Set aside "Doing It to Country Songs," a bit of single-entendre smut inexplicably graced by the Oak Ridge Boys: Shelton usually has enough swagger to let these jokes land with a crooked smile, evidenced by the heavy-handed wordplay of "She's Got a Way with Words" and the not necessarily pro-environment puns of "Green." Shelton remains appealing when he raises a little hell – and "Straight Outta Cold Beer" deliberately raises no more than a little hell – but like Bringing Back the Sunshine before it, If I'm Honest is at its core a balladeer's record, and Shelton pulls off these romance tunes with a sly, masculine grace that complements the album's sleek modern surfaces.

tracklist:
01 - Straight Outta Cold Beer
02 - She's Got a Way With Words
03 - Bet You Still Think About Me
04 - Every Time I Hear That Song
05 - Came Here to Forget
06 - Every Goodbye
07 - It Ain't Easy
08 - A Guy With a Girl
09 - Go Ahead and Break My Heart (feat. Gwen Stefani)
10 - Friends (From the Angry Birds Movie)
11 - One Night Girl
12 - Doing It to Country Songs (feat. The Oak Ridge Boys)
13 - Green
14 - You Can't Make This Up
15 - Savior's Shadow

Exact Audio Copy V1.3 from 2. September 2016

EAC extraction logfile from 27. April 2017, 17:34

Blake Shelton / If I'm Honest

Used drive : ASUS BW-12D1S-U Adapter: 1 ID: 1

Read mode : Secure
Utilize accurate stream : Yes
Defeat audio cache : Yes
Make use of C2 pointers : No

Read offset correction : 667
Overread into Lead-In and Lead-Out : No
Fill up missing offset samples with silence : Yes
Delete leading and trailing silent blocks : No
Null samples used in CRC calculations : Yes
Used interface : Native Win32 interface for Win NT & 2000
Gap handling : Appended to previous track

Used output format : User Defined Encoder
Selected bitrate : 1024 kBit/s
Quality : High
Add ID3 tag : No
Command line compressor : C:\Program Files (x86)\Music Codec\flac1.3.2\win64\flac.exe
Additional command line options : -8 -V -T "ARTIST=%artist%" -T "TITLE=%title%" -T "ALBUM=%albumtitle%" -T "DATE=%year%" -T "TRACKNUMBER=%tracknr%" -T "TOTALTRACKS=%numtracks%" -T "GENRE=%genre%" -T "ALBUMARTIST=%albumartist%" -T "ALBUM ARTIST=%albumartist%" -T "COMMENT=EAC Secure Mode, Test & Copy, AccurateRip, FLAC -8" %source%


TOC of the extracted CD

Track | Start | Length | Start sector | End sector
––––––––––––––––––––––––––––-
1 | 0:00.00 | 2:46.17 | 0 | 12466
2 | 2:46.17 | 3:11.36 | 12467 | 26827
3 | 5:57.53 | 3:55.17 | 26828 | 44469
4 | 9:52.70 | 3:35.57 | 44470 | 60651
5 | 13:28.52 | 3:40.53 | 60652 | 77204
6 | 17:09.30 | 3:10.26 | 77205 | 91480
7 | 20:19.56 | 3:31.35 | 91481 | 107340
8 | 23:51.16 | 3:10.64 | 107341 | 121654
9 | 27:02.05 | 4:25.11 | 121655 | 141540
10 | 31:27.16 | 3:03.66 | 141541 | 155331
11 | 34:31.07 | 3:41.12 | 155332 | 171918
12 | 38:12.19 | 3:02.00 | 171919 | 185568
13 | 41:14.19 | 3:11.34 | 185569 | 199927
14 | 44:25.53 | 3:30.59 | 199928 | 215736
15 | 47:56.37 | 2:44.56 | 215737 | 228092


Track 1

Filename H:\3. my rip in preparation\New\Tilzzy\01 - Straight Outta Cold Beer.wav

Pre-gap length 0:00:02.00

Peak level 100.0 %
Extraction speed 4.1 X
Track quality 100.0 %
Test CRC 313EA9E2
Copy CRC 313EA9E2
Accurately ripped (confidence 34) [3C93B0A0] (AR v2)
Copy OK

Track 2

Filename H:\3. my rip in preparation\New\Tilzzy\02 - She's Got a Way With Words.wav

Pre-gap length 0:00:00.76

Peak level 100.0 %
Extraction speed 4.6 X
Track quality 100.0 %
Test CRC 846C60B3
Copy CRC 846C60B3
Accurately ripped (confidence 34) [11E1BDC1] (AR v2)
Copy OK

Track 3

Filename H:\3. my rip in preparation\New\Tilzzy\03 - Bet You Still Think About Me.wav

Pre-gap length 0:00:00.49

Peak level 100.0 %
Extraction speed 5.1 X
Track quality 100.0 %
Test CRC A384AB00
Copy CRC A384AB00
Accurately ripped (confidence 34) [C205E70B] (AR v2)
Copy OK

Track 4

Filename H:\3. my rip in preparation\New\Tilzzy\04 - Every Time I Hear That Song.wav

Pre-gap length 0:00:00.20

Peak level 100.0 %
Extraction speed 4.7 X
Track quality 99.9 %
Test CRC 16201AFF
Copy CRC 16201AFF
Accurately ripped (confidence 34) [98503B74] (AR v2)
Copy OK

Track 5

Filename H:\3. my rip in preparation\New\Tilzzy\05 - Came Here to Forget.wav

Pre-gap length 0:00:00.96

Peak level 100.0 %
Extraction speed 5.7 X
Track quality 100.0 %
Test CRC D1344436
Copy CRC D1344436
Accurately ripped (confidence 35) [94D9E8CF] (AR v2)
Copy OK

Track 6

Filename H:\3. my rip in preparation\New\Tilzzy\06 - Every Goodbye.wav

Pre-gap length 0:00:00.29

Peak level 95.4 %
Extraction speed 5.9 X
Track quality 100.0 %
Test CRC 586E8681
Copy CRC 586E8681
Accurately ripped (confidence 34) [2258948F] (AR v2)
Copy OK

Track 7

Filename H:\3. my rip in preparation\New\Tilzzy\07 - It Ain't Easy.wav

Pre-gap length 0:00:00.38

Peak level 100.0 %
Extraction speed 5.5 X
Track quality 99.9 %
Test CRC DD3FFA70
Copy CRC DD3FFA70
Accurately ripped (confidence 34) [8E06CAED] (AR v2)
Copy OK

Track 8

Filename H:\3. my rip in preparation\New\Tilzzy\08 - A Guy With a Girl.wav

Pre-gap length 0:00:01.41

Peak level 100.0 %
Extraction speed 6.4 X
Track quality 100.0 %
Test CRC A29CB4F4
Copy CRC A29CB4F4
Accurately ripped (confidence 34) [ED017C61] (AR v2)
Copy OK

Track 9

Filename H:\3. my rip in preparation\New\Tilzzy\09 - Go Ahead and Break My Heart (feat. Gwen Stefani).wav

Pre-gap length 0:00:01.38

Peak level 100.0 %
Extraction speed 7.0 X
Track quality 100.0 %
Test CRC 2074C50E
Copy CRC 2074C50E
Accurately ripped (confidence 34) [BA30F24A] (AR v2)
Copy OK

Track 10

Filename H:\3. my rip in preparation\New\Tilzzy\10 - Friends (From the Angry Birds Movie).wav

Pre-gap length 0:00:01.33

Peak level 100.0 %
Extraction speed 6.9 X
Track quality 100.0 %
Test CRC 50E81B1F
Copy CRC 50E81B1F
Accurately ripped (confidence 34) [D431BEA4] (AR v2)
Copy OK

Track 11

Filename H:\3. my rip in preparation\New\Tilzzy\11 - One Night Girl.wav

Pre-gap length 0:00:01.34

Peak level 100.0 %
Extraction speed 7.3 X
Track quality 100.0 %
Test CRC CD731476
Copy CRC CD731476
Accurately ripped (confidence 34) [0C85E290] (AR v2)
Copy OK

Track 12

Filename H:\3. my rip in preparation\New\Tilzzy\12 - Doing It to Country Songs (feat. The Oak Ridge Boys).wav

Pre-gap length 0:00:01.42

Peak level 98.9 %
Extraction speed 7.2 X
Track quality 100.0 %
Test CRC 73FCEB3E
Copy CRC 73FCEB3E
Accurately ripped (confidence 34) [38094591] (AR v2)
Copy OK

Track 13

Filename H:\3. my rip in preparation\New\Tilzzy\13 - Green.wav

Pre-gap length 0:00:01.57

Peak level 100.0 %
Extraction speed 7.3 X
Track quality 100.0 %
Test CRC CEE86BDC
Copy CRC CEE86BDC
Accurately ripped (confidence 34) [430364FB] (AR v2)
Copy OK

Track 14

Filename H:\3. my rip in preparation\New\Tilzzy\14 - You Can't Make This Up.wav

Pre-gap length 0:00:01.66

Peak level 100.0 %
Extraction speed 6.8 X
Track quality 99.9 %
Test CRC 48FBD09A
Copy CRC 48FBD09A
Accurately ripped (confidence 34) [11D5AE7A] (AR v2)
Copy OK

Track 15

Filename H:\3. my rip in preparation\New\Tilzzy\15 - Savior's Shadow.wav

Pre-gap length 0:00:01.66

Peak level 98.2 %
Extraction speed 7.5 X
Track quality 100.0 %
Test CRC C354DA6B
Copy CRC C354DA6B
Accurately ripped (confidence 34) [3C0AE9EE] (AR v2)
Copy OK


All tracks accurately ripped

No errors occurred

End of status report

–– CUETools DB Plugin V2.1.6

[CTDB TOCID: uzv5oXrO2ekVAUFY_9INzDHohVU-] found
Submit result: uzv5oXrO2ekVAUFY_9INzDHohVU- has been confirmed
Track | CTDB Status
1 | (116/118) Accurately ripped, or (2/118) differs in 6 samples @02:46:16-02:46:17
2 | (116/118) Accurately ripped, or (2/118) differs in 782 samples @00:00:00,03:11:35-03:11:36
3 | (116/118) Accurately ripped, or (2/118) differs in 756 samples @00:00:00,03:55:16-03:55:17
4 | (116/118) Accurately ripped, or (2/118) differs in 766 samples @00:00:00,03:35:56-03:35:57
5 | (116/118) Accurately ripped, or (2/118) differs in 801 samples @00:00:00,03:40:52-03:40:53
6 | (116/118) Accurately ripped, or (2/118) differs in 754 samples @00:00:00,03:10:25-03:10:26
7 | (116/118) Accurately ripped, or (2/118) differs in 797 samples @00:00:00,03:31:34-03:31:35
8 | (116/118) Accurately ripped, or (2/118) differs in 779 samples @00:00:00,03:10:63-03:10:64
9 | (116/118) Accurately ripped, or (2/118) differs in 784 samples @00:00:00,04:25:10-04:25:11
10 | (116/118) Accurately ripped, or (2/118) differs in 829 samples @00:00:00,03:03:65-03:03:66
11 | (116/118) Accurately ripped, or (2/118) differs in 812 samples @00:00:00,03:41:11-03:41:12
12 | (116/118) Accurately ripped, or (2/118) differs in 777 samples @00:00:00,03:01:74-03:02:00
13 | (116/118) Accurately ripped, or (2/118) differs in 819 samples @00:00:00,03:11:33-03:11:34
14 | (116/118) Accurately ripped, or (2/118) differs in 795 samples @00:00:00,03:30:58-03:30:59
15 | (116/118) Accurately ripped, or (2/118) differs in 809 samples @00:00:00


==== Log checksum 77E62FE7DFD2B3B58F06CD780178B289CFDFFA4FDE520422B28585B53FCF4C4A ====


Blake Shelton - If I'm Honest (2016) {Warner Bros. 9362-49200-3}

Blake Shelton - If I'm Honest (2016) {Warner Bros. 9362-49200-3}


All thanks goes to the original releaser!


===