Subcategories

Bob Dylan - Good As I Been To You (1992) {Columbia CK 53200}

Posted By: ruskaval
Bob Dylan - Good As I Been To You (1992) {Columbia CK 53200}

Bob Dylan - Good As I Been To You (1992) {Columbia CK 53200}
EAC rip (secure mode) | FLAC (tracks)+CUE+LOG -> 335 Mb | MP3 @320 -> 130 Mb
Full Artwork @ 300 dpi (jpg) -> 20 Mb | 5% repair rar
© 1992 Columbia / Sony Music | CK 53200
Rock / Folk Rock / Folk / Americana / Roots Rock / Songwriter

Given the acclaim of The Bootleg Series and the perceived disappointment of Under the Red Sky, it seemed like it was time for Dylan to bounce back with a convincing album of original material. Instead, he delivered a record of folk songs, his first straight covers album ever, not to mention his first guitar, harmonica, and voice record since the early '60s.

That alone would make it an anomaly, but Good as I Been to You is more than that, because it's a really good traditional folk album, having just enough familiar tunes – "Frankie and Albert," "Blackjack Davey," "Sitting on Top of the World," "Froggie Went A-Courtin'" – to provide an entryway to the less familiar numbers, which are delivered equally well. Yes, this could be seen as a rather unassuming record, but that's what's special about it. In 1992, not even folksingers were working with this material, but Dylan did, reviving folk's (and rock's) ties to the past at an unexpected time and with unexpectedly strong results. A minor high point in his catalog.

Personnel:
Bob Dylan – vocals, guitar, harmonica

Tracklist:
1. "Frankie & Albert" (Trad., arranged by Mississippi John Hurt) – 3:50
2. "Jim Jones" (Trad., arranged by Mick Slocum) – 3:52
3. "Blackjack Davey" – 5:47
4. "Canadee-i-o" – 4:20
5. "Sittin' on Top of the World" – 4:27
6. "Little Maggie" – 2:52
7. "Hard Times" (Stephen Foster, arranged by De Dannan)[2] – 4:31
8. "Step It Up and Go" – 2:54
9. "Tomorrow Night" (Sam Coslow & Will Grosz)[3] – 3:42
10. "Arthur McBride" (Trad., arranged by Paul Brady) – 6:20
11. "You're Gonna Quit Me" (Public Domain) – 2:46
12. "Diamond Joe" – 3:14
13. "Froggie Went A-Courtin'" – 6:26

Exact Audio Copy V1.0 beta 2 from 29. April 2011

EAC extraction logfile from 22. February 2013, 13:11

Bob Dylan / Good As I Been To You

Used drive : HL-DT-STDVDRAM GH15F Adapter: 1 ID: 0

Read mode : Secure
Utilize accurate stream : Yes
Defeat audio cache : Yes
Make use of C2 pointers : No

Read offset correction : 667
Overread into Lead-In and Lead-Out : No
Fill up missing offset samples with silence : Yes
Delete leading and trailing silent blocks : No
Null samples used in CRC calculations : Yes
Used interface : Native Win32 interface for Win NT & 2000
Gap handling : Appended to previous track

Used output format : Internal WAV Routines
Sample format : 44.100 Hz; 16 Bit; Stereo


TOC of the extracted CD

Track | Start | Length | Start sector | End sector
––––––––––––––––––––––––––––-
1 | 0:00.00 | 3:50.50 | 0 | 17299
2 | 3:50.50 | 3:55.13 | 17300 | 34937
3 | 7:45.63 | 5:49.72 | 34938 | 61184
4 | 13:35.60 | 4:23.38 | 61185 | 80947
5 | 17:59.23 | 4:30.62 | 80948 | 101259
6 | 22:30.10 | 2:55.03 | 101260 | 114387
7 | 25:25.13 | 4:34.17 | 114388 | 134954
8 | 29:59.30 | 2:57.48 | 134955 | 148277
9 | 32:57.03 | 3:43.17 | 148278 | 165019
10 | 36:40.20 | 6:22.13 | 165020 | 193682
11 | 43:02.33 | 2:48.25 | 193683 | 206307
12 | 45:50.58 | 3:17.30 | 206308 | 221112
13 | 49:08.13 | 6:23.20 | 221113 | 249857


Track 1

Filename J:\FLAC\01 - Frankie and Albert.wav

Pre-gap length 0:00:02.00

Peak level 100.0 %
Extraction speed 4.4 X
Track quality 100.0 %
Test CRC 93BBDAA5
Copy CRC 93BBDAA5
Accurately ripped (confidence 8) [DBD5C31C] (AR v2)
Copy OK

Track 2

Filename J:\FLAC\02 - Jim Jones.wav

Pre-gap length 0:00:00.67

Peak level 100.0 %
Extraction speed 5.0 X
Track quality 100.0 %
Test CRC A0593D86
Copy CRC A0593D86
Cannot be verified as accurate (confidence 55) [83799EF0], AccurateRip returned [1C94214C] (AR v2)
Copy OK

Track 3

Filename J:\FLAC\03 - Blackjack Davey.wav

Pre-gap length 0:00:02.03

Peak level 100.0 %
Extraction speed 5.8 X
Track quality 100.0 %
Test CRC B39F81FE
Copy CRC B39F81FE
Accurately ripped (confidence 8) [79086F25] (AR v2)
Copy OK

Track 4

Filename J:\FLAC\04 - Canadee I O.wav

Pre-gap length 0:00:01.45

Peak level 100.0 %
Extraction speed 5.9 X
Track quality 100.0 %
Test CRC 2E2D3704
Copy CRC 2E2D3704
Accurately ripped (confidence 8) [3E8EDD93] (AR v2)
Copy OK

Track 5

Filename J:\FLAC\05 - Sittin On Top Of The World.wav

Pre-gap length 0:00:01.60

Peak level 100.0 %
Extraction speed 6.3 X
Track quality 100.0 %
Test CRC 7B441CBF
Copy CRC 7B441CBF
Accurately ripped (confidence 9) [E4C6703A] (AR v2)
Copy OK

Track 6

Filename J:\FLAC\06 - Little Maggie.wav

Pre-gap length 0:00:02.10

Peak level 100.0 %
Extraction speed 6.3 X
Track quality 100.0 %
Test CRC 1BF78206
Copy CRC 1BF78206
Accurately ripped (confidence 8) [AC373C52] (AR v2)
Copy OK

Track 7

Filename J:\FLAC\07 - Hard Times.wav

Pre-gap length 0:00:01.10

Peak level 100.0 %
Extraction speed 5.9 X
Track quality 99.9 %
Test CRC 6E1135A2
Copy CRC 6E1135A2
Accurately ripped (confidence 8) [30B8BB2F] (AR v2)
Copy OK

Track 8

Filename J:\FLAC\08 - Step It Up And Go.wav

Pre-gap length 0:00:01.67

Peak level 100.0 %
Extraction speed 5.3 X
Track quality 99.9 %
Test CRC 1E99DC62
Copy CRC 1E99DC62
Accurately ripped (confidence 8) [70F81520] (AR v2)
Copy OK

Track 9

Filename J:\FLAC\09 - Tomorrow Night.wav

Pre-gap length 0:00:01.53

Peak level 92.1 %
Extraction speed 7.5 X
Track quality 100.0 %
Test CRC 235F96F5
Copy CRC 235F96F5
Accurately ripped (confidence 8) [1CE02042] (AR v2)
Copy OK

Track 10

Filename J:\FLAC\10 - Authur McBride.wav

Pre-gap length 0:00:01.72

Peak level 100.0 %
Extraction speed 8.2 X
Track quality 100.0 %
Test CRC B495D9D3
Copy CRC B495D9D3
Accurately ripped (confidence 8) [DFA2FD7F] (AR v2)
Copy OK

Track 11

Filename J:\FLAC\11 - You're Gonna Quit Me.wav

Pre-gap length 0:00:02.00

Peak level 99.2 %
Extraction speed 5.8 X
Track quality 99.9 %
Test CRC C355D9A3
Copy CRC C355D9A3
Accurately ripped (confidence 8) [EB126B35] (AR v2)
Copy OK

Track 12

Filename J:\FLAC\12 - Diamond Joe.wav

Pre-gap length 0:00:01.60

Peak level 94.0 %
Extraction speed 7.8 X
Track quality 100.0 %
Test CRC 874BE89D
Copy CRC 874BE89D
Accurately ripped (confidence 8) [489DF537] (AR v2)
Copy OK

Track 13

Filename J:\FLAC\13 - Froggie Went A Courtin.wav

Pre-gap length 0:00:01.35

Peak level 99.7 %
Extraction speed 8.9 X
Track quality 100.0 %
Test CRC 53F413C5
Copy CRC 53F413C5
Accurately ripped (confidence 8) [1D5305DC] (AR v2)
Copy OK


12 track(s) accurately ripped
1 track(s) could not be verified as accurate

Some tracks could not be verified as accurate

No errors occurred

End of status report

==== Log checksum E9EA2D8320C05A09FE264D7EEC2299811F8E685C3819F957CA1F4C5981EB4B68 ====


Bob Dylan - Good As I Been To You (1992) {Columbia CK 53200}

Bob Dylan - Good As I Been To You (1992) {Columbia CK 53200}



===