Tags
Language
Tags
December 2022
Su Mo Tu We Th Fr Sa
27 28 29 30 1 2 3
4 5 6 7 8 9 10
11 12 13 14 15 16 17
18 19 20 21 22 23 24
25 26 27 28 29 30 31

Bongzilla - Stash/Methods Of Attaining Extreme Altitudes (2007)

Posted By: Necromandus

Bongzilla - Stash/Methods Of Attaining Extreme Altitudes (2007)
EAC Rip | WV, IMG+CUE+LOG | 548 MB | MP3 CBR 320 Kbps | 178 MB | Complete Scans | 19 MB
Sludge/Stoner Metal | Label: Relapse Records | Catalog Number: RR 6768-2 | RAR 3% Rec. | RS.com

"Stash was Bongzilla's debut full length after a rash of singles on smaller labels. Sludgy, grim, like Buzzoven covering Sleep. The Sabbath influence is apparent, as the riffs are full of bluesy undertones. Great lyrics about the state of drug legislation in the US and a crackpot rhythm section add to the appeal. Muleboy's vocals aren't for everyone, but in my opinion they work…he kind of reminds me of Kevin Sharp from Brutal Truth and it cuts through the mix. "

"Methods for Attaining Extreme Altitudes is the work of a band who appear to be operating at the top of their game like Eyehategod, Grief or Cavity. Bongzilla grease the wheels with some bluesy, damn near catchy guitar riffs, fiddle with the tempos, then they burn the thing down."

~ StonerRock.com
Tracklist:

Stash:
1. Gestation - 3:50
2. Sacred Smoke - 5:49
3. American - 3:52
4. Budgun/T.H.C. - 5:45
5. Prohibition (4th Amendment) - 4:10
6. Grog Lady - 4:45
7. Harvest - 8:40
8. P.O.W. - 6:07
9. Under the Sun (Black Sabbath cover) - 6:04
Methods for Attaining Extreme Altitudes:
10. Melovespot - 6:59
11. High Like a Dog - 5:11
12. Smoke / I Love Maryjane - 13:42

Exact Audio Copy V0.99 prebeta 4 from 23. January 2008

EAC extraction logfile from 15. March 2009, 12:31

Bongzilla / Stash And Methods For Attaining Extreme Altitudes

Used drive : Optiarc DVD RW AD-7191A Adapter: 1 ID: 0

Read mode : Secure
Utilize accurate stream : Yes
Defeat audio cache : Yes
Make use of C2 pointers : No

Read offset correction : 6
Overread into Lead-In and Lead-Out : No
Fill up missing offset samples with silence : Yes
Delete leading and trailing silent blocks : No
Null samples used in CRC calculations : Yes
Used interface : Installed external ASPI interface

Used output format : Internal WAV Routines
Sample format : 44.100 Hz; 16 Bit; Stereo

TOC of the extracted CD

Track | Start | Length | Start sector | End sector
––––––––––––––––––––––––––––-
1 | 0:00.00 | 3:50.12 | 0 | 17261
2 | 3:50.12 | 5:49.03 | 17262 | 43439
3 | 9:39.15 | 3:52.25 | 43440 | 60864
4 | 13:31.40 | 5:45.05 | 60865 | 86744
5 | 19:16.45 | 4:09.45 | 86745 | 105464
6 | 23:26.15 | 4:44.47 | 105465 | 126811
7 | 28:10.62 | 8:39.63 | 126812 | 165799
8 | 36:50.50 | 6:06.62 | 165800 | 193311
9 | 42:57.37 | 6:03.68 | 193312 | 220604
10 | 49:01.30 | 6:58.47 | 220605 | 252001
11 | 56:00.02 | 5:10.73 | 252002 | 275324
12 | 61:11.00 | 13:42.07 | 275325 | 336981


Range status and errors

Selected range

Filename G:\-= lossless work =-\Bongzilla - Stash And Methods For Attaining Extreme Altitudes.wav

Peak level 98.9 %
Range quality 100.0 %
Test CRC 4A6E18C1
Copy CRC 4A6E18C1
Copy OK

No errors occurred


AccurateRip summary

Track 1 not present in database
Track 2 not present in database
Track 3 not present in database
Track 4 not present in database
Track 5 not present in database
Track 6 not present in database
Track 7 not present in database
Track 8 not present in database
Track 9 not present in database
Track 10 not present in database
Track 11 not present in database
Track 12 not present in database

None of the tracks are present in the AccurateRip database

End of status report

This remastered, repackaged, reissue of BONGZILLA's first full-length album and Relapse EP will give you a contact buzz all over again. Stash/ Methods… proves that BONGZILLA was as far ahead of their time as they were behind it.