Subcategories

Bosko Petrovic 5 - Featuring James Newton

Posted By: bumbo
Bosko Petrovic 5 - Featuring James Newton

Bosko Petrovic 5 - Featuring James Newton (1995)
Jazz | EAC (APE+CUE+LOG) | Full 300dpi scans | 305 MB
Jazzette Records | 1995 | BPCD 033 | rar files | 3% recovery

Anyway, sit and listen, and I hope you'll enjoy the music as much as we enjoyed playing it!(Bosko Petrovic)


Tracks:
01 YES! (B. Petrovic) 10'47
02 TO ZAGREB WITH LOVE (B. Petrovic) 8'50
03 C JAM BLUES (D. Ellington) 13'34
04 MEDLEY (Diane - Ch. Mingus, Sophisticated Lady - D.Ellington, I don't stand a ghost of a chance with you - V. Young) 8'57
05 SO WHAT! (M. Davis) 11'27

Recorded live in B.P. Club, Zagreb, 08.10.1993.

Musicians:
James Newton - flute
Boško Petrovic - vibes
Neven Franges - piano
N.H.O. Pedersen - bass
Alvin Queen - drums

Linear notes by Bosko Petrovic
Since I heard the record Opus de Jazz for the very first time (more than thirty years ago), it has become something of a "jazz bible" for me! The way in which Milt Jackson, Frank Wess, Hank Jones, and (of course) "Klook" Clarke swing sound, and play together is, in my opinion, still unique in the history of "pick up combo" recordings. And what a beautiful blend of Frank's flute and Milt's vibes! So as soon as I got a chance to play and record with the great "flute-boss" of today, James Newton (who is by tje way also very well known in the world of classical music as virtuoso solist ans respectable composer), I immediately tried to put together a rhythm section that would help us make our dream come true! I was lucky to get N. H. O. Pedersen and Alvin Queen, no doubt one of the greatest rhythm sections in the business! Also, choice of my long-term partner, Zagreb pianist Neven Franges, proved to be a good guess!
Anyway, sit and listen, and I hope you'll enjoy the music as much as we enjoyed playing it! Zagreb, May 1995

Exact Audio Copy V0.99 prebeta 4 from 23. January 2008

EAC extraction logfile from 19. June 2008, 21:33

Bosko Petrovic feat. James Newton / Bosko Petrovic 5

Used drive : PLEXTOR DVDR PX-750A Adapter: 3 ID: 0

Read mode : Secure
Utilize accurate stream : Yes
Defeat audio cache : Yes
Make use of C2 pointers : No

Read offset correction : 102
Overread into Lead-In and Lead-Out : No
Fill up missing offset samples with silence : Yes
Delete leading and trailing silent blocks : No
Null samples used in CRC calculations : Yes
Used interface : Installed external ASPI interface

Used output format : Internal WAV Routines
Sample format : 44.100 Hz; 16 Bit; Stereo


TOC of the extracted CD

Track | Start | Length | Start sector | End sector
––––––––––––––––––––––––––––-
1 | 0:00.02 | 10:50.33 | 2 | 48784
2 | 10:50.35 | 8:55.20 | 48785 | 88929
3 | 19:45.55 | 13:31.27 | 88930 | 149781
4 | 33:17.07 | 8:53.68 | 149782 | 189824
5 | 42:11.00 | 11:28.00 | 189825 | 241424


Range status and errors

Selected range

Filename F:\Bosko Petrovic feat. James Newton - Bosko Petrovic 5.wav

Peak level 100.0 %
Range quality 100.0 %
Copy CRC 8CE6D6E5
Copy OK

No errors occurred


AccurateRip summary

Track 1 not present in database
Track 2 not present in database
Track 3 not present in database
Track 4 not present in database
Track 5 not present in database

None of the tracks are present in the AccurateRip database

End of status report