Subcategories
Tags
Language
Tags

Brian Wilson - Live At The Roxy (2001) {2CD PROMO, Capitol Records}

Posted By: ruskaval
Brian Wilson - Live At The Roxy (2001) {2CD PROMO, Capitol Records}

Brian Wilson - Live At The Roxy (2001) {2CD PROMO, Capitol Records}
EAC rip (secure mode) | FLAC (tracks)+CUE+LOG -> 658 Mb | MP3 @320 -> 227 Mb
Full Artwork @ 300 dpi (jpg) -> 5 Mb | 5% repair rar
© 2001 Capitol Record | Promo | For Reference Only
Rock / Surf / Rock & Roll / Pop Rock / Psychedelic Rock

The man may have had a flawed life, but he is a 24-carat genius.

This is just a brilliant double album. His voice is good, but even if it was just OK, it would all be very fine indeed as the songs are simply wonderful and his band are to die for. They bring out the beauty of his music, with fantastic musicianship and the spot-on brilliance of the backing singers (the only girl in the band - Taylor Mills - comes shining through, but the guys are great, too). They almost make me stop dead in the street as I'm walking and singing along (if you've passed by me and heard me, sorry!) to the music, it just can't get any better.

The effects of his difficult life can be heard in his speech, but when the music starts, I go into wonderment as he goes into stellar performance. He sounds like a boy in a sweet shop, he seems to be having just about the most fun anyone could wish to have.

The tracks selected for the album are, also, a revelation - a fine mix of early through to later material.

A fantastic album and something to brighten anyones life.
Brian Wilson - Live At The Roxy (2001) {2CD PROMO, Capitol Records}


Tracklist

CD: Brian Wilson - Live At The Roxy Theatre CD1


01. Little Girl Intro [0:00:59.00]
02. The Little Girl I Once Knew [0:03:24.80]
03. This Whole World [0:01:51.50]
04. Don't Worry Baby [0:03:27.36]
05. Kiss Me Baby [0:03:11.97]
06. Do It Again [0:03:25.42]
07. California Girls [0:04:06.57]
08. I Get Around [0:02:35.09]
09. Back Home [0:04:33.66]
10. In My Room [0:02:48.24]
11. Surfer Girl [0:03:02.76]
12. The First Time [0:03:55.93]
13. This Isn't Love [0:03:55.13]
14. Add Some Music To Your Day [0:04:10.66]
15. Please Let Me Wonder [0:03:30.97]

Brian Wilson - Live At The Roxy (2001) {2CD PROMO, Capitol Records}


CD: Brian Wilson - Live At The Roxy Theatre CD2

01. Band Intro [0:01:29.50]
02. Brian Wilson [0:00:55.26]
03. 'Til I Die [0:03:57.49]
04. Darlin' [0:02:50.86]
05. Let's Go Away For Awhile [0:02:54.44]
06. Pet Sounds [0:04:27.36]
07. God Only Knows [0:03:25.50]
08. Lay Down Burden [0:03:28.49]
09. Be My Baby [0:04:11.13]
10. Good Vibrations [0:06:01.77]
11. Caroline No [0:05:00.42]
12. All Summer Long [0:03:11.86]
13. Love & Mercy [0:03:53.40]

Brian Wilson - Live At The Roxy (2001) {2CD PROMO, Capitol Records}


Exact Audio Copy V1.2 from 12. August 2016

EAC extraction logfile from 2. November 2018, 9:33

Brian Wilson / Live At The Roxy Theatre CD1

Used drive : HL-DT-STDVD+-RW GU90N Adapter: 1 ID: 1

Read mode : Secure
Utilize accurate stream : Yes
Defeat audio cache : Yes
Make use of C2 pointers : No

Read offset correction : 102
Overread into Lead-In and Lead-Out : No
Fill up missing offset samples with silence : Yes
Delete leading and trailing silent blocks : No
Null samples used in CRC calculations : Yes
Used interface : Native Win32 interface for Win NT & 2000
Gap handling : Appended to previous track

Used output format : User Defined Encoder
Selected bitrate : 1024 kBit/s
Quality : High
Add ID3 tag : No
Command line compressor : C:\Program Files (x86)\Exact Audio Copy\Flac\flac.exe
Additional command line options : -8 -V -T "ARTIST=%artist%" -T "TITLE=%title%" -T "ALBUM=%albumtitle%" -T "DATE=%year%" -T "TRACKNUMBER=%tracknr%" -T "GENRE=%genre%" -T "PERFORMER=%albuminterpret%" -T "COMPOSER=%composer%" %haslyrics%–tag-from-file=LYRICS="%lyricsfile%"%haslyrics% -T "ALBUMARTIST=%albumartist%" -T "DISCNUMBER=%cdnumber%" -T "TOTALDISCS=%totalcds%" -T "TOTALTRACKS=%numtracks%" -T "COMMENT=%comment%" %source% -o %dest%


TOC of the extracted CD

Track | Start | Length | Start sector | End sector
––––––––––––––––––––––––––––-
1 | 0:00.00 | 0:59.00 | 0 | 4424
2 | 0:59.00 | 3:24.60 | 4425 | 19784
3 | 4:23.60 | 1:51.38 | 19785 | 28147
4 | 6:15.23 | 3:27.27 | 28148 | 43699
5 | 9:42.50 | 3:11.73 | 43700 | 58097
6 | 12:54.48 | 3:25.32 | 58098 | 73504
7 | 16:20.05 | 4:06.43 | 73505 | 91997
8 | 20:26.48 | 2:35.07 | 91998 | 103629
9 | 23:01.55 | 4:33.50 | 103630 | 124154
10 | 27:35.30 | 2:48.18 | 124155 | 136772
11 | 30:23.48 | 3:02.57 | 136773 | 150479
12 | 33:26.30 | 3:55.70 | 150480 | 168174
13 | 37:22.25 | 3:55.10 | 168175 | 185809
14 | 41:17.35 | 4:10.50 | 185810 | 204609
15 | 45:28.10 | 3:30.73 | 204610 | 220432


Track 1

Filename C:\Users\ian\Desktop\Brian Wilson - Live At The Roxy (2001) [FLAC] {2CD PROMO}\Live At The Roxy CD1\01 - Little Girl Intro.wav

Pre-gap length 0:00:02.00

Peak level 78.5 %
Extraction speed 0.8 X
Track quality 100.0 %
Test CRC 3125653B
Copy CRC 3125653B
Copy OK

Track 2

Filename C:\Users\ian\Desktop\Brian Wilson - Live At The Roxy (2001) [FLAC] {2CD PROMO}\Live At The Roxy CD1\02 - The Little Girl I Once Knew.wav

Peak level 98.8 %
Extraction speed 1.2 X
Track quality 100.0 %
Test CRC 5C05962B
Copy CRC 5C05962B
Copy OK

Track 3

Filename C:\Users\ian\Desktop\Brian Wilson - Live At The Roxy (2001) [FLAC] {2CD PROMO}\Live At The Roxy CD1\03 - This Whole World.wav

Peak level 98.8 %
Extraction speed 1.2 X
Track quality 100.0 %
Test CRC 464961BD
Copy CRC 464961BD
Copy OK

Track 4

Filename C:\Users\ian\Desktop\Brian Wilson - Live At The Roxy (2001) [FLAC] {2CD PROMO}\Live At The Roxy CD1\04 - Don't Worry Baby.wav

Peak level 98.8 %
Extraction speed 1.4 X
Track quality 100.0 %
Test CRC D51F32E9
Copy CRC D51F32E9
Copy OK

Track 5

Filename C:\Users\ian\Desktop\Brian Wilson - Live At The Roxy (2001) [FLAC] {2CD PROMO}\Live At The Roxy CD1\05 - Kiss Me Baby.wav

Peak level 98.8 %
Extraction speed 1.5 X
Track quality 100.0 %
Test CRC 62C0634A
Copy CRC 62C0634A
Copy OK

Track 6

Filename C:\Users\ian\Desktop\Brian Wilson - Live At The Roxy (2001) [FLAC] {2CD PROMO}\Live At The Roxy CD1\06 - Do It Again.wav

Peak level 98.8 %
Extraction speed 1.6 X
Track quality 100.0 %
Test CRC 17735DF0
Copy CRC 17735DF0
Copy OK

Track 7

Filename C:\Users\ian\Desktop\Brian Wilson - Live At The Roxy (2001) [FLAC] {2CD PROMO}\Live At The Roxy CD1\07 - California Girls.wav

Peak level 98.8 %
Extraction speed 1.7 X
Track quality 100.0 %
Test CRC 36CFEBB8
Copy CRC 36CFEBB8
Copy OK

Track 8

Filename C:\Users\ian\Desktop\Brian Wilson - Live At The Roxy (2001) [FLAC] {2CD PROMO}\Live At The Roxy CD1\08 - I Get Around.wav

Peak level 97.7 %
Extraction speed 1.7 X
Track quality 100.0 %
Test CRC DCE07F86
Copy CRC DCE07F86
Copy OK

Track 9

Filename C:\Users\ian\Desktop\Brian Wilson - Live At The Roxy (2001) [FLAC] {2CD PROMO}\Live At The Roxy CD1\09 - Back Home.wav

Peak level 97.7 %
Extraction speed 1.9 X
Track quality 100.0 %
Test CRC 88B3BFA9
Copy CRC 88B3BFA9
Copy OK

Track 10

Filename C:\Users\ian\Desktop\Brian Wilson - Live At The Roxy (2001) [FLAC] {2CD PROMO}\Live At The Roxy CD1\10 - In My Room.wav

Peak level 97.7 %
Extraction speed 1.8 X
Track quality 100.0 %
Test CRC 2505C342
Copy CRC 2505C342
Copy OK

Track 11

Filename C:\Users\ian\Desktop\Brian Wilson - Live At The Roxy (2001) [FLAC] {2CD PROMO}\Live At The Roxy CD1\11 - Surfer Girl.wav

Peak level 78.5 %
Extraction speed 1.9 X
Track quality 100.0 %
Test CRC 3BD5D050
Copy CRC 3BD5D050
Copy OK

Track 12

Filename C:\Users\ian\Desktop\Brian Wilson - Live At The Roxy (2001) [FLAC] {2CD PROMO}\Live At The Roxy CD1\12 - The First Time.wav

Peak level 98.8 %
Extraction speed 2.1 X
Track quality 100.0 %
Test CRC 9B9DCEC6
Copy CRC 9B9DCEC6
Copy OK

Track 13

Filename C:\Users\ian\Desktop\Brian Wilson - Live At The Roxy (2001) [FLAC] {2CD PROMO}\Live At The Roxy CD1\13 - This Isn't Love.wav

Peak level 88.1 %
Extraction speed 2.2 X
Track quality 100.0 %
Test CRC 9A819EDF
Copy CRC 9A819EDF
Copy OK

Track 14

Filename C:\Users\ian\Desktop\Brian Wilson - Live At The Roxy (2001) [FLAC] {2CD PROMO}\Live At The Roxy CD1\14 - Add Some Music To Your Day.wav

Peak level 98.8 %
Extraction speed 2.0 X
Track quality 99.9 %
Test CRC DFEDC5C6
Copy CRC DFEDC5C6
Copy OK

Track 15

Filename C:\Users\ian\Desktop\Brian Wilson - Live At The Roxy (2001) [FLAC] {2CD PROMO}\Live At The Roxy CD1\15 - Please Let Me Wonder.wav

Peak level 97.7 %
Extraction speed 2.2 X
Track quality 100.0 %
Test CRC 6CCC534B
Copy CRC 6CCC534B
Copy OK

No errors occurred

End of status report

–– CUETools DB Plugin V2.1.6

[CTDB TOCID: CRQuSyG1ByJRs6_ymeuHrhS4ss0-] found
Submit result: CRQuSyG1ByJRs6_ymeuHrhS4ss0- has been confirmed
Track | CTDB Status
1 | (15/15) Accurately ripped
2 | (15/15) Accurately ripped
3 | (15/15) Accurately ripped
4 | (14/15) Accurately ripped
5 | (14/15) Accurately ripped
6 | (15/15) Accurately ripped
7 | (15/15) Accurately ripped
8 | (14/15) Accurately ripped
9 | (14/15) Accurately ripped
10 | (14/15) Accurately ripped
11 | (14/15) Accurately ripped
12 | (14/15) Accurately ripped
13 | (14/15) Accurately ripped
14 | (14/15) Accurately ripped
15 | (14/15) Accurately ripped


==== Log checksum 44E80C24535AA577BE47F41D6D2932B8F71A1245268E888B927B81D79D96E7CE ====





Exact Audio Copy V1.2 from 12. August 2016

EAC extraction logfile from 2. November 2018, 10:59

Brian Wilson / Live At The Roxy (Disc 2)

Used drive : HL-DT-STDVD+-RW GU90N Adapter: 1 ID: 1

Read mode : Secure
Utilize accurate stream : Yes
Defeat audio cache : Yes
Make use of C2 pointers : No

Read offset correction : 102
Overread into Lead-In and Lead-Out : No
Fill up missing offset samples with silence : Yes
Delete leading and trailing silent blocks : No
Null samples used in CRC calculations : Yes
Used interface : Native Win32 interface for Win NT & 2000
Gap handling : Appended to previous track

Used output format : User Defined Encoder
Selected bitrate : 1024 kBit/s
Quality : High
Add ID3 tag : No
Command line compressor : C:\Program Files (x86)\Exact Audio Copy\Flac\flac.exe
Additional command line options : -8 -V -T "ARTIST=%artist%" -T "TITLE=%title%" -T "ALBUM=%albumtitle%" -T "DATE=%year%" -T "TRACKNUMBER=%tracknr%" -T "GENRE=%genre%" -T "PERFORMER=%albuminterpret%" -T "COMPOSER=%composer%" %haslyrics%–tag-from-file=LYRICS="%lyricsfile%"%haslyrics% -T "ALBUMARTIST=%albumartist%" -T "DISCNUMBER=%cdnumber%" -T "TOTALDISCS=%totalcds%" -T "TOTALTRACKS=%numtracks%" -T "COMMENT=%comment%" %source% -o %dest%


TOC of the extracted CD

Track | Start | Length | Start sector | End sector
––––––––––––––––––––––––––––-
1 | 0:00.00 | 1:29.38 | 0 | 6712
2 | 1:29.38 | 0:55.20 | 6713 | 10857
3 | 2:24.58 | 3:57.37 | 10858 | 28669
4 | 6:22.20 | 2:50.65 | 28670 | 41484
5 | 9:13.10 | 2:54.33 | 41485 | 54567
6 | 12:07.43 | 4:27.27 | 54568 | 74619
7 | 16:34.70 | 3:25.38 | 74620 | 90032
8 | 20:00.33 | 3:28.37 | 90033 | 105669
9 | 23:28.70 | 4:11.10 | 105670 | 124504
10 | 27:40.05 | 6:01.58 | 124505 | 151637
11 | 33:41.63 | 5:00.32 | 151638 | 174169
12 | 38:42.20 | 3:11.65 | 174170 | 188559
13 | 41:54.10 | 3:53.30 | 188560 | 206064


Track 1

Filename C:\Users\ian\Desktop\Brian Wilson - Live At The Roxy (2001) [FLAC] {2CD PROMO}\Live At The Roxy CD2\01 - Band Intro.wav

Pre-gap length 0:00:02.00

Peak level 98.8 %
Extraction speed 1.0 X
Track quality 100.0 %
Test CRC 50E0D44C
Copy CRC 50E0D44C
Copy OK

Track 2

Filename C:\Users\ian\Desktop\Brian Wilson - Live At The Roxy (2001) [FLAC] {2CD PROMO}\Live At The Roxy CD2\02 - Brian Wilson.wav

Peak level 98.8 %
Extraction speed 0.8 X
Track quality 100.0 %
Test CRC EEF51A70
Copy CRC EEF51A70
Copy OK

Track 3

Filename C:\Users\ian\Desktop\Brian Wilson - Live At The Roxy (2001) [FLAC] {2CD PROMO}\Live At The Roxy CD2\03 - 'Til I Die.wav

Peak level 98.8 %
Extraction speed 1.3 X
Track quality 100.0 %
Test CRC 5885B98C
Copy CRC 5885B98C
Copy OK

Track 4

Filename C:\Users\ian\Desktop\Brian Wilson - Live At The Roxy (2001) [FLAC] {2CD PROMO}\Live At The Roxy CD2\04 - Darlin'.wav

Peak level 98.8 %
Extraction speed 1.4 X
Track quality 100.0 %
Test CRC 2033D78D
Copy CRC 2033D78D
Copy OK

Track 5

Filename C:\Users\ian\Desktop\Brian Wilson - Live At The Roxy (2001) [FLAC] {2CD PROMO}\Live At The Roxy CD2\05 - Let's Go Away For Awhile.wav

Peak level 88.1 %
Extraction speed 1.4 X
Track quality 100.0 %
Test CRC B596796E
Copy CRC B596796E
Copy OK

Track 6

Filename C:\Users\ian\Desktop\Brian Wilson - Live At The Roxy (2001) [FLAC] {2CD PROMO}\Live At The Roxy CD2\06 - Pet Sounds.wav

Peak level 88.1 %
Extraction speed 1.6 X
Track quality 100.0 %
Test CRC 1D6FECE3
Copy CRC 1D6FECE3
Copy OK

Track 7

Filename C:\Users\ian\Desktop\Brian Wilson - Live At The Roxy (2001) [FLAC] {2CD PROMO}\Live At The Roxy CD2\07 - God Only Knows.wav

Peak level 98.8 %
Extraction speed 1.5 X
Track quality 99.9 %
Test CRC 61A78609
Copy CRC 61A78609
Copy OK

Track 8

Filename C:\Users\ian\Desktop\Brian Wilson - Live At The Roxy (2001) [FLAC] {2CD PROMO}\Live At The Roxy CD2\08 - Lay Down Burden.wav

Peak level 98.8 %
Extraction speed 1.5 X
Track quality 99.9 %
Test CRC C44080DE
Copy CRC C44080DE
Copy OK

Track 9

Filename C:\Users\ian\Desktop\Brian Wilson - Live At The Roxy (2001) [FLAC] {2CD PROMO}\Live At The Roxy CD2\09 - Be My Baby.wav

Peak level 98.8 %
Extraction speed 1.9 X
Track quality 100.0 %
Test CRC FD4C369F
Copy CRC FD4C369F
Copy OK

Track 10

Filename C:\Users\ian\Desktop\Brian Wilson - Live At The Roxy (2001) [FLAC] {2CD PROMO}\Live At The Roxy CD2\10 - Good Vibrations.wav

Peak level 98.8 %
Extraction speed 2.1 X
Track quality 100.0 %
Test CRC 9C0CADFD
Copy CRC 9C0CADFD
Copy OK

Track 11

Filename C:\Users\ian\Desktop\Brian Wilson - Live At The Roxy (2001) [FLAC] {2CD PROMO}\Live At The Roxy CD2\11 - Caroline No.wav

Peak level 98.8 %
Extraction speed 2.0 X
Track quality 99.9 %
Test CRC 1B2D9745
Copy CRC 1B2D9745
Copy OK

Track 12

Filename C:\Users\ian\Desktop\Brian Wilson - Live At The Roxy (2001) [FLAC] {2CD PROMO}\Live At The Roxy CD2\12 - All Summer Long.wav

Peak level 98.8 %
Extraction speed 1.8 X
Track quality 99.9 %
Test CRC AFC33EEF
Copy CRC AFC33EEF
Copy OK

Track 13

Filename C:\Users\ian\Desktop\Brian Wilson - Live At The Roxy (2001) [FLAC] {2CD PROMO}\Live At The Roxy CD2\13 - Love & Mercy.wav

Peak level 98.8 %
Extraction speed 2.0 X
Track quality 99.9 %
Test CRC 5277641C
Copy CRC 5277641C
Copy OK

No errors occurred

End of status report

–– CUETools DB Plugin V2.1.6

[CTDB TOCID: rEC65NOrUdfH.Xdj7GtuBaNuqVE-] found
Submit result: rEC65NOrUdfH.Xdj7GtuBaNuqVE- has been confirmed
Track | CTDB Status
1 | (16/16) Accurately ripped
2 | (16/16) Accurately ripped
3 | (16/16) Accurately ripped
4 | (16/16) Accurately ripped
5 | (16/16) Accurately ripped
6 | (16/16) Accurately ripped
7 | (16/16) Accurately ripped
8 | (16/16) Accurately ripped
9 | (16/16) Accurately ripped
10 | (16/16) Accurately ripped
11 | (16/16) Accurately ripped
12 | (16/16) Accurately ripped
13 | (16/16) Accurately ripped


==== Log checksum B150FC56B46A29F358212D0B6FE5A3A4F23831CB146DB9DE9F126DC9495BAE06 ====


Brian Wilson - Live At The Roxy (2001) {2CD PROMO, Capitol Records}

Brian Wilson - Live At The Roxy (2001) {2CD PROMO, Capitol Records}



===