Subcategories

Bud Powell – The Amazing Bud Powell – The Scene Changes (1958)(Blue Note USA Pressing)(CDP 746529 2)

Posted By: janwal46
Bud Powell – The Amazing Bud Powell – The Scene Changes (1958)(Blue Note USA Pressing)(CDP 746529 2)

Bud Powell – The Amazing Bud Powell – The Scene Changes (1958)(Blue Note USA Pressing)(CDP 746529 2)

Bud Powell – The Amazing Bud Powell – The Scene Changes (1958)(Blue Note USA Pressing)(CDP 746529 2)

Bud Powell – The Amazing Bud Powell – The Scene Changes (1958)(Blue Note USA Pressing)(CDP 746529 2)
1958 | Jazz | EAC RIP | FLAC+CUE+LOG+HQ-Covers(400Dpi) | 271Mb+11Mb

"The Scene Changes" is a classic jazz trio album by one of the great jazz pianists of all time. While Bud Powell's best recordings for Blue Note are from the late 40s and early 50s in my opinion (captured on the two volumes of "The Amazing Bud Powell"), this is one of three sessions he made for the label in 1957-58. (The other two are "Bud!" and "Time Waits," and while the former is hard to find as a single issue, all of the above sessions are available as part of "Bud Powell - The Complete Blue Note and Roost Recordings”. The hallmark of Bud's second stint at Blue Note for me is the wonderful sound of these recordings. It might just be the difference between the mono recordings of five and ten years earlier, and the distinct stereo sound of the late 50s, but it makes the music come to life. You can even pick out Bud's trademark moans during his solos (which sometimes get a little old, but they are endearing nonetheless.

Personnel:

Bud Powell - Piano
Paul Chambers - Bass
Art Taylor – Drums

Tracklist:

01 - Cleopatra's Dream
02 - Duid Deed
03 - Down with It
04 - Danceland
05 - Borderick
06 - Crossin' the Channel
07 - Comin' Up
08 - Gettin' There
09 - Scene Changes
10 - Comin' Up (Alternate Take)

Recorded by Rudy Van Gelder on December 29, 1958

Exact Audio Copy V0.99 prebeta 4 from 23. January 2008

EAC extraction logfile from 12. June 2009, 16:38

Bud Powell / The Amazing Bud Powell - The Scene Changes

Used drive : _NEC DVD_RW ND-3520A Adapter: 1 ID: 1

Read mode : Secure
Utilize accurate stream : Yes
Defeat audio cache : No
Make use of C2 pointers : No

Read offset correction : 48
Overread into Lead-In and Lead-Out : No
Fill up missing offset samples with silence : Yes
Delete leading and trailing silent blocks : No
Null samples used in CRC calculations : No
Used interface : Native Win32 interface for Win NT & 2000

Used output format : Internal WAV Routines
Sample format : 44.100 Hz; 16 Bit; Stereo


TOC of the extracted CD

Track | Start | Length | Start sector | End sector
––––––––––––––––––––––––––––-
1 | 0:00.00 | 4:25.28 | 0 | 19902
2 | 4:25.28 | 5:09.47 | 19903 | 43124
3 | 9:35.00 | 4:01.63 | 43125 | 61262
4 | 13:36.63 | 3:44.60 | 61263 | 78122
5 | 17:21.48 | 2:01.07 | 78123 | 87204
6 | 19:22.55 | 3:32.30 | 87205 | 103134
7 | 22:55.10 | 7:59.43 | 103135 | 139102
8 | 30:54.53 | 5:06.30 | 139103 | 162082
9 | 36:01.08 | 4:03.25 | 162083 | 180332
10 | 40:04.33 | 5:28.60 | 180333 | 204992


Range status and errors

Selected range

Filename G:\AVAXHOME\Bud Powell - The Amazing Bud Powell (1958)\Bud Powell - The Amazing Bud Powell - The Scene Changes.wav

Peak level 100.0 %
Range quality 99.9 %
Copy CRC 088303D7
Copy OK

No errors occurred


AccurateRip summary

Track 1 accurately ripped (confidence 1) [6BAE24DD]
Track 2 accurately ripped (confidence 1) [F8C59C62]
Track 3 accurately ripped (confidence 1) [2E097634]
Track 4 accurately ripped (confidence 1) [57D39384]
Track 5 accurately ripped (confidence 1) [DE43E7A7]
Track 6 accurately ripped (confidence 1) [196FB6A4]
Track 7 accurately ripped (confidence 1) [467BD624]
Track 8 accurately ripped (confidence 1) [472CAE40]
Track 9 accurately ripped (confidence 1) [9AAC5836]
Track 10 accurately ripped (confidence 1) [54B9E073]

All tracks accurately ripped

End of status report

RIPPED BY JANWAL46

RS Links: