Subcategories

Kenny Burrell & John Coltrane - Kenny Burrell & John Coltrane (1958) {2006 Prestige RVG Remasters Series}

Posted By: ruskaval
Kenny Burrell & John Coltrane - Kenny Burrell & John Coltrane (1958) {2006 Prestige RVG Remasters Series}

Kenny Burrell & John Coltrane - Kenny Burrell & John Coltrane (1958) {2006 Prestige RVG Remasters Series}
EAC rip (secure mode) | FLAC (tracks)+CUE+LOG -> 235 Mb | MP3 @320 -> 89 Mb
Full Artwork @ 600 dpi (png) -> 180 Mb | 5% repair rar
© 1958, 2006 Concord / Prestige / New Jazz | 0025218810722 / NJ 8276 | 24-bit remaster
Jazz / Bop / Hard Bop

For his final Prestige-related session as a sideman, John Coltrane (tenor sax) and Kenny Burrell (guitar) are supported by an all-star cast of Paul Chambers (bass), Jimmy Cobb (drums), and Tommy Flanagan (piano). This short but sweet gathering cut their teeth on two Flanagan compositions, another two lifted from the Great American Songbook, and a Kenny Burrell original. Flanagan's tunes open and close the album, with the spirited "Freight Trane" getting the platter underway. While not one of Coltrane's most assured performances, he chases the groove right into the hands of Burrell.
Kenny Burrell & John Coltrane - Kenny Burrell & John Coltrane (1958) {2006 Prestige RVG Remasters Series}

The guitarist spins sonic gold and seems to inspire similar contributions from Chambers' bowed bass and Coltrane alike. Especially as the participants pass fours (read: four bars) between them at the song's conclusion. The Gus Kahn/Ted Fio Rito standard "I Never Knew" frolics beneath Burrell's nimble fretwork. Once he passes the reins to Coltrane, the differences in their styles are more readily apparent, with Burrell organically emerging while Coltrane sounds comparatively farther out structurally. Much of the same can likewise be associated to Burrell's own "Lyresto," with the two co-leads gracefully trading and incorporating spontaneous ideas. While not as pronounced, the disparity in the way the performance is approached is a study in unifying and complementary contrasts. The delicate "Why Was I Born" is one for the ages as Burrell and Coltrane are captured in a once-in-a-lifetime duet. Together they weave an uncanny and revealing sonic tapestry that captures a pure and focused intimacy. This, thanks in part to the complete restraint of the ensemble, who take the proverbial "pause for the cause" and sit out. What remains is the best argument for the meeting of these two jazz giants. The performance can likewise be located on the various-artists Original Jazz Classics: The Prestige Sampler (1988) and Playboy Jazz After Dark (2002) and is worth checking out, regardless of where one might find it. In many ways the showpiece of the project is Flanagan's nearly quarter-hour "Big Paul." The pianist's lengthy intro establishes a laid-back bop-centric melody with his trademark stylish keyboards perfectly balancing Chambers and Cobb's rock-solid timekeeping. Coltrane's restraint is palpable as he traverses and examines his options with insightful double-time flurries that assert themselves then retreat into the larger extent of his solo. Those interested in charting the saxophonist's progression should make specific note of his work here.

Personnel:
John Coltrane — tenor saxophone
Kenny Burrell — guitar
Tommy Flanagan — piano
Paul Chambers — bass
Jimmy Cobb — drums

tracklist:
01 - Freight Trane
02 - I Never Knew
03 - Lyresto
04 - Why Was I Born
05 - Big Paul

Exact Audio Copy V1.3 from 2. September 2016

EAC extraction logfile from 6. September 2018, 16:03

Kenny Burrell & John Coltrane / Kenny Burrell & John Coltrane

Used drive : ATAPI iHAS122 F Adapter: 1 ID: 2

Read mode : Secure
Utilize accurate stream : Yes
Defeat audio cache : Yes
Make use of C2 pointers : No

Read offset correction : 6
Overread into Lead-In and Lead-Out : No
Fill up missing offset samples with silence : Yes
Delete leading and trailing silent blocks : No
Null samples used in CRC calculations : Yes
Used interface : Native Win32 interface for Win NT & 2000
Gap handling : Appended to previous track

Used output format : User Defined Encoder
Selected bitrate : 1024 kBit/s
Quality : High
Add ID3 tag : No
Command line compressor : C:\Program Files (x86)\Exact Audio Copy_v1.3\Flac\flac.exe
Additional command line options : -8 -V -T "ARTIST=%artist%" -T "TITLE=%title%" -T "ALBUM=%albumtitle%" -T "DATE=%year%" -T "TRACKNUMBER=%tracknr%" -T "TOTALTRACKS=%numtracks%" -T "GENRE=%genre%" -T "ALBUMARTIST=%albumartist%" -T "ALBUM ARTIST=%albumartist%" -T "COMMENT=EAC Secure Mode, Test & Copy, AccurateRip, FLAC -8" %source%


TOC of the extracted CD

Track | Start | Length | Start sector | End sector
––––––––––––––––––––––––––––-
1 | 0:00.00 | 7:21.74 | 0 | 33148
2 | 7:21.74 | 7:05.33 | 33149 | 65056
3 | 14:27.32 | 5:44.51 | 65057 | 90907
4 | 20:12.08 | 3:13.70 | 90908 | 105452
5 | 23:26.03 | 14:04.38 | 105453 | 168790


Track 1

Filename D:\_EAC\Kenny Burrell & John Coltrane - Kenny Burrell & John Coltrane (1958) [FLAC] {Prestige RVG}\01 - Freight Trane.wav

Pre-gap length 0:00:02.00

Peak level 97.9 %
Extraction speed 5.7 X
Track quality 100.0 %
Test CRC 0C1768A7
Copy CRC 0C1768A7
Accurately ripped (confidence 50) [D6688991] (AR v2)
Copy OK

Track 2

Filename D:\_EAC\Kenny Burrell & John Coltrane - Kenny Burrell & John Coltrane (1958) [FLAC] {Prestige RVG}\02 - I Never Knew.wav

Pre-gap length 0:00:02.73

Peak level 97.1 %
Extraction speed 6.8 X
Track quality 100.0 %
Test CRC 80C3C466
Copy CRC 80C3C466
Accurately ripped (confidence 50) [DBC080AD] (AR v2)
Copy OK

Track 3

Filename D:\_EAC\Kenny Burrell & John Coltrane - Kenny Burrell & John Coltrane (1958) [FLAC] {Prestige RVG}\03 - Lyresto.wav

Pre-gap length 0:00:02.57

Peak level 97.9 %
Extraction speed 7.3 X
Track quality 100.0 %
Test CRC DD718A5E
Copy CRC DD718A5E
Accurately ripped (confidence 50) [29C7A7DD] (AR v2)
Copy OK

Track 4

Filename D:\_EAC\Kenny Burrell & John Coltrane - Kenny Burrell & John Coltrane (1958) [FLAC] {Prestige RVG}\04 - Why Was I Born_.wav

Pre-gap length 0:00:03.34

Peak level 94.2 %
Extraction speed 7.2 X
Track quality 100.0 %
Test CRC EF56A5E5
Copy CRC EF56A5E5
Accurately ripped (confidence 49) [D6A36F4E] (AR v2)
Copy OK

Track 5

Filename D:\_EAC\Kenny Burrell & John Coltrane - Kenny Burrell & John Coltrane (1958) [FLAC] {Prestige RVG}\05 - Big Paul.wav

Pre-gap length 0:00:03.27

Peak level 97.9 %
Extraction speed 8.0 X
Track quality 100.0 %
Test CRC 8DF8E0C4
Copy CRC 8DF8E0C4
Accurately ripped (confidence 49) [6E036149] (AR v2)
Copy OK


All tracks accurately ripped

No errors occurred

End of status report

–– CUETools DB Plugin V2.1.6

[CTDB TOCID: L1cCb3Au28s2rX4L806ESHefmzc-] found
Submit result: L1cCb3Au28s2rX4L806ESHefmzc- has been confirmed
Track | CTDB Status
1 | (135/136) Accurately ripped
2 | (135/136) Accurately ripped
3 | (134/136) Accurately ripped
4 | (135/136) Accurately ripped
5 | (135/136) Accurately ripped


==== Log checksum E2217471AF1AEFFAF2C76993EF6E61516144EEF61C3E85395D1A4FE867A20451 ====


Kenny Burrell & John Coltrane - Kenny Burrell & John Coltrane (1958) {2006 Prestige RVG Remasters Series}

Kenny Burrell & John Coltrane - Kenny Burrell & John Coltrane (1958) {2006 Prestige RVG Remasters Series}


see more Prestige RVG…


===