Tags
Language
Tags

Carla Bley - European Tour 1977 (2007) {ECM Records WATT/8}

Posted By: ruskaval
Carla Bley - European Tour 1977 (2007) {ECM Records WATT/8}

Carla Bley - European Tour 1977 (2007) {ECM Records WATT/8}
EAC rip (secure mode) | FLAC (tracks)+CUE+LOG -> 230 Mb | MP3 @320 -> 102 Mb
Full Artwork @ 300 dpi (jpg) -> 11 Mb | 5% repair rar
© 1977, 2007 ECM Records / Watt Works | WATT/8 / 831 830-2
Jazz / Post Bop / Experimental Big Band

One of Carla Bley's most rewarding recordings, this set features her tentet playing such numbers as "Wrong Key Donkey," "Drinking Music" and the 19-minute "Spangled Banner Minor and Other Patriotic Songs." Bley's wry humor is often felt and she utilizes such colorful players as trumpeter Michael Mantler, Gary Windo on tenor, trombonist Roswell Rudd and Bob Stewart on tuba in this unusual, somewhat innovative and always fun music.
Carla Bley - European Tour 1977 (2007) {ECM Records WATT/8}


ecmreviews.com INFO

Personnel:

Michael Mantler trumpet
Elton Dean alto saxophone
Gary Windo tenor saxophone
John Clark French horn, guitar
Roswell Rudd trombone
Bob Stewart tuba
Terry Adams piano
Carla Bley organ, tenor saxophone
Hugh Hopper bass guitar (bass drum on “Drinking Music”)
Andrew Cyrille drums

Recorded September 1977 at Bavaria Musik Studios, Munich

Tracklist:
01 - Rose And Sad Song
02 - Wrong Key Donkey
03 - Drinking Music
04 - Spangled Banner Minor And Other Patriotic Songs

Exact Audio Copy V1.3 from 2. September 2016

EAC extraction logfile from 1. January 2018, 16:16

Carla Bley / European Tour 1977

Used drive : MATSHITABD-CMB UJ141EF Adapter: 1 ID: 0

Read mode : Secure
Utilize accurate stream : Yes
Defeat audio cache : Yes
Make use of C2 pointers : No

Read offset correction : 103
Overread into Lead-In and Lead-Out : No
Fill up missing offset samples with silence : Yes
Delete leading and trailing silent blocks : No
Null samples used in CRC calculations : Yes
Used interface : Native Win32 interface for Win NT & 2000
Gap handling : Appended to previous track

Used output format : User Defined Encoder
Selected bitrate : 1024 kBit/s
Quality : High
Add ID3 tag : No
Command line compressor : C:\Program Files (x86)\Exact Audio Copy\FLAC\FLAC.EXE
Additional command line options : -8 -e -p -V -T "ARTIST=%artist%" -T "TITLE=%title%" -T "ALBUM=%albumtitle%" -T "DATE=%year%" -T "TRACKNUMBER=%tracknr%" -T "GENRE=%genre%" -T "PERFORMER=%albuminterpret%" -T "COMPOSER=%composer%" %haslyrics%–tag-from-file=LYRICS="%lyricsfile%"%haslyrics% -T "ALBUMARTIST=%albumartist%" -T "DISCNUMBER=%cdnumber%" -T "TOTALDISCS=%totalcds%" -T "TOTALTRACKS=%numtracks%" -T "COMMENT=%comment%" %source% -o %dest%


TOC of the extracted CD

Track | Start | Length | Start sector | End sector
––––––––––––––––––––––––––––-
1 | 0:00.32 | 11:11.08 | 32 | 50364
2 | 11:11.40 | 7:52.72 | 50365 | 85836
3 | 19:04.37 | 4:26.10 | 85837 | 105796
4 | 23:30.47 | 19:17.28 | 105797 | 192599


Track 1

Filename E:\rips\The Carla Bley Band - European Tour 1977 (1978) {Watt 831 830-2} [CD][FLAC]\01 - Rose And Sad Song.wav

Pre-gap length 0:00:02.42

Peak level 59.3 %
Extraction speed 2.9 X
Track quality 100.0 %
Test CRC 3A70BF0E
Copy CRC 3A70BF0E
Accurately ripped (confidence 3) [FB24EBBE] (AR v2)
Copy OK

Track 2

Filename E:\rips\The Carla Bley Band - European Tour 1977 (1978) {Watt 831 830-2} [CD][FLAC]\02 - Wrong Key Donkey.wav

Pre-gap length 0:00:04.12

Peak level 73.0 %
Extraction speed 3.4 X
Track quality 100.0 %
Test CRC 751F01EA
Copy CRC 751F01EA
Accurately ripped (confidence 3) [681E2779] (AR v2)
Copy OK

Track 3

Filename E:\rips\The Carla Bley Band - European Tour 1977 (1978) {Watt 831 830-2} [CD][FLAC]\03 - Drinking Music.wav

Pre-gap length 0:00:03.98

Peak level 83.6 %
Extraction speed 3.5 X
Track quality 100.0 %
Test CRC 68F102CF
Copy CRC 68F102CF
Accurately ripped (confidence 3) [8ABEA9AB] (AR v2)
Copy OK

Track 4

Filename E:\rips\The Carla Bley Band - European Tour 1977 (1978) {Watt 831 830-2} [CD][FLAC]\04 - Spangled Banner Minor And Other Patriotic Songs.wav

Pre-gap length 0:00:06.21

Peak level 83.3 %
Extraction speed 4.1 X
Track quality 99.9 %
Test CRC E3569B11
Copy CRC E3569B11
Accurately ripped (confidence 3) [368D0D5B] (AR v2)
Copy OK


All tracks accurately ripped

No errors occurred

End of status report

–– CUETools DB Plugin V2.1.6

[CTDB TOCID: 9JtuU19pLt0NVHgn1OPEdl1MRuc-] found
Submit result: 9JtuU19pLt0NVHgn1OPEdl1MRuc- has been confirmed
Track | CTDB Status
1 | (26/26) Accurately ripped
2 | (25/26) Accurately ripped
3 | (25/26) Accurately ripped
4 | (25/26) Accurately ripped


==== Log checksum FD47F127A09CF0E2E9BABE62841BCD62BAFE0506CAAD525872DFA5BE0F921A47 ====


Carla Bley - European Tour 1977 (2007) {ECM Records WATT/8}

Carla Bley - European Tour 1977 (2007) {ECM Records WATT/8}


see more Carla Bley…


===