Subcategories

Cathedral - Cosmic Requiem (CDS, 1994) (RE-UP, PROPER)

Posted By: Necromandus
Cathedral - Cosmic Requiem (CDS, 1994) (RE-UP, PROPER)

Cathedral - Cosmic Requiem (CDS, 1994)
EAC Rip | FLAC, IMG+CUE+LOG | 320 MB | MP3 CBR 320 Kbps | 110 MB | Complete HQ Scans | PNG -> 70 MB
Doom Metal/Stoner | Label: Earache Records/Columbia #CK 64326 | RAR 3% Rec. | FilePost

This is the album that sealed the doom deal for me. Until I discovered "Cosmic Requiem," I was on a pretty strict death metal diet. While Cathedral have nothing to do with DM, they have everything to do with that which is old school. Call them Sabbath-worship if you like, to me there is scarcely a better compliment to receive.

When the bizarre sounds of the opening riff of "Cosmic Funeral" first entered my ears I really didn't know what to think. This was my first experience with Cathedral, and it caught me a bit off guard. It sounded odd, retro, a bit cheeky, and totally British. Lee Dorrian's leather lung growl-shout was of another world, the perfect vehicle for his strange and decadent writing style. Round about four and a half minutes into the disc I found myself under full command of Dorrian's disco supernova. Lee D and crew suddenly had me learning the Martian casanova.

Let's groove, sonic motherfucker!!

The interplay of the guitar and keys gives "Cosmic Funeral" a slick feel as the band jams on Sabbathian power chord slides. From the grooving, up-tempo portion of the song, I guess you could see how some uninitiated media dumbfuck would apply the oxymoronic term "disco doom," a term hated by Dorrian and co. When all is said and done, Cathedral are not a doom band, nor a stoner band, they are simply a heavy metal band. Case closed.

And "Hypnos 164" is just that, a heavy metal song, in the same way that "Paranoid" is a heavy metal song.

In 2011 are brains are bogged down with myriad sub-genres and bastardizations of the metallic sacrament. That's why I don't listen to anything new. Don't ask me what a breakdown is. I thought that's what rappers did, break it down, right? I guess it was some time in the mid to late 90s when our beautiful, puritan, poseur-slaying heavy metal was first defiled by hip-hop culture. Now we have mallcore miscreants dressed in baggy pants, side-cocked hats and short fuckin hair forming so-called metal bands. Ok. I'll digress before this rant turns into a fuckin deathwish.

Let's talk about the Rebirth of an already majestical metal song. For those of you familiar with "Forest of Equilibrium," you know the tune "A Funeral Request" is a tasty slice of British doom. The original version of this tune creeps forward at a snails pace, reminiscient of the Sab's "Electric Funeral," but on xanax. I would wager that during Cathedral's touring for FoE they experimented with increasing the tempo on that opening lick, thus lending to it a more ball-crushing, less depressive effect on the listener. "A Funeral Request (Rebirth)" merely injected a bit of adrenaline into an already stellar piece. Note the added bluesy soloing starting at 0:56 which sets up the eloquent verse quite nicely. These lyrics are borrowed from 1890s poet DP Barnitz, a writer of nihilistic verse who died of heart complications at the age of 23. There is something about the elegance of King James English that is meant for metal. "White rose perfume, go with thee on thy way - unto thy shaded tomb…"

My only gripe with this song (and with Cathedral) is the lack of double bass drums where the music absolutely calls for double bass. At 4:40 the tune picks up the pace, entering a beefy triplet rhythm. Upon first listen, and seemingly at Dorrian's urging of "C'mon!" I expected to be punched in the balls with equally beefy sustained double bass triplets, but they were nowhere to be found, leaving an unfulfilled bottom end. Perhaps drummer and multi-instrumentalist Mark Ramsey Wharton finds double bassing distasteful. His fills and pocket drumming are expert, maybe he deemed double kicks unnecessary. This complaint of mine could be due to years spent in the death metal realm where two kicks are standard issue. However, I somehow doubt that I am alone in wondering, where is Wharton's left (or right, he might be a lefty) foot? Oh well, this lack of kicks is made up for in the song's bombastic and tech-friendly 7/4 outro. Well done, boys.

Three out of four tracks and the EP is only half-over. Let the weirdness ensue with "The Voyage of the Homeless Sapien," quite an aptly-named little diddy. The track begins with lovely homage paid to "Planet Caravan," and the ponderous verse leads into a thick, down-tuned and dreary guitar line. The lyrics here provide excellent social commentary on the uselessness of mankind. This piece is set up as an eight part suite, ranging from doom to the overtly experimental to pure heavy metal mastery, chugging along until, um, well until the mushrooms kick in. We frolic in the green fields of ego loss, forget our chores for the day, even forget our names, and then, slowly, we drift back into the doldrums of reality again with a riff that sounds strangely familiar… wait a minute… is that Iron Man? Dude, are they ripping off Iron Man?? Answer: NO. This riff which awakens us from our psilocybe-slumber is not the property of Mr. Iommi but of his descendants, the very children of the grave and of the sea!

Here we have four greatly varied tracks that clock in at exactly forty-three minutes. I think I gave seven dollars and some change for this disc at the used cd shop. What a steal, man! A fine piece of obscure and experimental music which thumbs its nose at all things conventional.

~ by hippie_holocaust, www.metal-archives.com
Tracklist:

1. Cosmic Funeral - 7:01
2. Hypnos 164 - 5:44
3. A Funeral Request - Rebirth - 7:33
4. The Voyage of the Homeless Sapien - 22:42

Exact Audio Copy V1.0 beta 3 from 29. August 2011

EAC extraction logfile from 26. March 2012, 17:54

Cathedral / Cosmic Requiem (CDS, CK 64326)

Used drive : PIONEER DVD-RW DVR-219L Adapter: 2 ID: 0

Read mode : Secure
Utilize accurate stream : Yes
Defeat audio cache : Yes
Make use of C2 pointers : No

Read offset correction : 6
Overread into Lead-In and Lead-Out : No
Fill up missing offset samples with silence : Yes
Delete leading and trailing silent blocks : No
Null samples used in CRC calculations : Yes
Used interface : Native Win32 interface for Win NT & 2000

Used output format : Internal WAV Routines
Sample format : 44.100 Hz; 16 Bit; Stereo


TOC of the extracted CD

Track | Start | Length | Start sector | End sector
––––––––––––––––––––––––––––-
1 | 0:00.00 | 7:01.15 | 0 | 31589
2 | 7:01.15 | 5:43.72 | 31590 | 57386
3 | 12:45.12 | 7:33.25 | 57387 | 91386
4 | 20:18.37 | 22:41.68 | 91387 | 193529


Range status and errors

Selected range

Filename F:\.www.AvaxHome.ru\Cathedral - Cosmic Requiem (CDS, CK 64326).wav

Peak level 98.4 %
Extraction speed 6.7 X
Range quality 100.0 %
Test CRC 2488757E
Copy CRC 2488757E
Copy OK

No errors occurred


AccurateRip summary

Track 1 accurately ripped (confidence 5) [FDA99A69] (AR v1)
Track 2 accurately ripped (confidence 5) [16E13463] (AR v1)
Track 3 accurately ripped (confidence 5) [298516F8] (AR v1)
Track 4 accurately ripped (confidence 5) [47D8027E] (AR v1)

All tracks accurately ripped

End of status report

–– CUETools DB Plugin V2.1.3

[CTDB TOCID: uEgKQmHq752KHOE0c5BX5xg8F8U-] found, Submit result: already submitted
[97ae4839] (9/9) Accurately ripped


==== Log checksum 60B6F7CBEECEB5BEE1563155B114C6E406903F2801F79300C3F13E9B8FAD592A ====

–––––––––––-

DON'T MODIFY THIS FILE

–––––––––––-

PERFORMER: auCDtect Task Manager, ver. 1.5.1RC3 build 1.5.1.4
Copyright © 2008-2010 y-soft. All rights reserved
http://y-soft.org

ANALYZER: auCDtect: CD records authenticity detector, version 0.8.2
Copyright © 2004 Oleg Berngardt. All rights reserved.
Copyright © 2004 Alexander Djourik. All rights reserved.


FILE: Cathedral - Cosmic Requiem (CDS, CK 64326).wav
Size: 455182604 Hash: 387F0340A7CFF0651717FA0CBB46A99A Accuracy: -m0
Conclusion: CDDA 100%
Signature: EC74FDAAF530A54E81298B24654BE2CC9B4DE6DE

================================================================================

foobar2000 1.1.3 / Dynamic Range Meter 1.1.0
log date: 2012-03-26 18:04:35

––––––––––––––––––––––––––––––––––––––––
Analyzed: Cathedral / Cosmic Requiem (CDS, CK 64326)
––––––––––––––––––––––––––––––––––––––––

DR Peak RMS Duration Track
––––––––––––––––––––––––––––––––––––––––
DR8 -0.33 dB -10.02 dB 7:01 01-Cosmic Funeral
DR8 -0.32 dB -9.64 dB 5:44 02-Hypnos 164
DR7 -0.56 dB -8.55 dB 7:33 03-A Funeral Request - Rebirth
DR11 -0.14 dB -13.63 dB 22:42 04-The Voyage of the Homeless Sapien
––––––––––––––––––––––––––––––––––––––––

Number of tracks: 4
Official DR value: DR9

Samplerate: 44100 Hz
Channels: 2
Bits per sample: 16
Bitrate: 1411 kbps
Codec: PCM
================================================================================

• Lee Dorrian - Vocals, Mellotron, Tambourine, Chicken Shaker, Music Stand, Chair Leg
• Garry Jennings - Guitar, Bass Guitar, Mellotron, Keyboards, Chicken Shaker, Gwyro
• Adam Lehan - Guitars, Guitar Stand
• Mark Wharton - Drums, Flute, Bodhran, Tambourine, Xylophone

All songs by Jennings/Dorrian.
Recorded at Rhythm Studios (16-23 Aug 1993). Mixed at Rhythm Studios (10-14 Jan 1994).
Produced & Mixed by Jennings/Dorrian/Paul Johnson.
Track 3 Produced and Mixed by David Bianco/ Recorded and Mixed at Manor Studios, Oxford, England.
Engineered by Shaun DeFeo.

Please, do not write these links at any web pages. Enjoy & keep the files alive!
* - EAC Image, standard LOG, embedded cuesheet, Foobar2000 ready
In case you encounter some dead links, please leave the comment here or send me a private message!
Download lossless* (flac) + covers via FilePost.com:
Lossless part1.rar | Lossless part2.rar | Covers.rar | Lossy HQ (320 Kbps CBR).rar