Subcategories

Cedar Walton - Voices Deep Within (2009)

Posted By: Bezz
Cedar Walton - Voices Deep Within (2009)

Cedar Walton - Voices Deep Within (2009)
EAC rip | FLAC+CUE+LOG | Scans | 430 Mb(Incl. Recovery)
Genre ~ Post-Bop, Mainstream Jazz | Label ~ High Note Records

Cedar Walton continues to produce consistently good mainstream jazz recordings, approaching a sum total of 50. This effort revisits previous original compositions or tackles some hard bop and standards, while alternating between trio and quartet formats. Tenor saxophonist Vincent Herring's dry, flatted style is heard on half of the material, illuminating his increased desire to find a distinctive voice away from his more recognizable alto sax. Veteran bassist Buster Williams is clearly someone Walton enjoys working with regularly, while drummer Willie Jones III is more than capable of driving the pianist's swinging machine on a straight-ahead path. There's nothing complicated or groundbreaking about this music, but it is solid, substantive, and always enjoyable whether on the first or the hundredth hearing. Three classic themes of Walton's reappear in slightly rearranged form; the spirited "Voices Deep Within," which is one of Walton's more affirmed and memorable melodies, the easy, lyrical post-bop piece "Something in Common," with a hefty bass solo from Williams, and one for his deceased mother, "Dear Ruth," lightly rendered, modified in pacing from the original version, and a perfect musical tribute to her long life (97 years old before passing in 2002). John Coltrane's "Naima" is also changed, out of a slow ballad and into an cozy, steady pace, still lovely as ever. A modal calypso version of Stevie Wonders' "Another Star" is completely different than his previous commercial fusion rendering, with some Asian touches, while Walton takes the vintage Eubie Blake evergreen "Memories of You" in a trio setting with a more swinging, less parlor-y approach. More in the pocket is the spiky Sonny Rollins off-minor theme "No Moe," a sneaky tune that allows a more playful Walton to skulk in hunched over style. One piece features Walton primarily as a solo artist, as his version of "Over the Rainbow" has him waxing rhapsodically on a redo of the Bud Powell solo treatment for the Wizard of Oz main theme before the rhythm section quietly enters. Walton always has something beautiful to play that sets him apart from the rest, and is as good as a ton of bullion in his golden, productive years. ~ AllMusic
Tracklist

1. Voices Deep Within
2. Memories of You
3. Another Star
4. Dear Ruth
5. Something in Common
6. Over the Rainbow
7. Naima
8. No Moe

Exact Audio Copy V1.0 beta 3 from 29. August 2011

EAC extraction logfile from 19. January 2013, 23:01

Cedar Walton / Voices Deep Within

Used drive : TSSTcorpCDDVDW SH-S223C Adapter: 4 ID: 0

Read mode : Secure
Utilize accurate stream : Yes
Defeat audio cache : Yes
Make use of C2 pointers : No

Read offset correction : 697
Overread into Lead-In and Lead-Out : No
Fill up missing offset samples with silence : Yes
Delete leading and trailing silent blocks : No
Null samples used in CRC calculations : Yes
Used interface : Native Win32 interface for Win NT & 2000
Gap handling : Appended to previous track

Used output format : User Defined Encoder
Selected bitrate : 896 kBit/s
Quality : High
Add ID3 tag : No
Command line compressor : C:\Program Files (x86)\Exact Audio Copy\FLAC\FLAC.EXE
Additional command line options : -8 -V -T "Artist=%artist%" -T "Title=%title%" -T "Album=%albumtitle%" -T "DATE=%year%" -T "TRACKNUMBER=%tracknr%" -T "Genre=%genre%" -T "ALBUMARTIST=%albumartist%" -T "ALBUM ARTIST=%albumartist%" -T "COMMENT=EAC Secure Mode, Test & Copy, AccurateRip, FLAC -8" %source%


TOC of the extracted CD

Track | Start | Length | Start sector | End sector
––––––––––––––––––––––––––––-
1 | 0:00.00 | 6:42.22 | 0 | 30171
2 | 6:42.22 | 6:07.48 | 30172 | 57744
3 | 12:49.70 | 8:22.04 | 57745 | 95398
4 | 21:11.74 | 6:16.66 | 95399 | 123664
5 | 27:28.65 | 6:32.70 | 123665 | 153134
6 | 34:01.60 | 7:03.73 | 153135 | 184932
7 | 41:05.58 | 6:29.49 | 184933 | 214156
8 | 47:35.32 | 9:05.12 | 214157 | 255043


Track 1

Filename C:\Users\Aministrator\Desktop\Cedar Walton - Voices Deep Within (2009) [FLAC]\01 Voices Deep Within.wav

Pre-gap length 0:00:02.00

Peak level 97.9 %
Extraction speed 2.2 X
Track quality 100.0 %
Test CRC A9F41E3A
Copy CRC A9F41E3A
Track not present in AccurateRip database
Copy OK

Track 2

Filename C:\Users\Aministrator\Desktop\Cedar Walton - Voices Deep Within (2009) [FLAC]\02 Memories of You.wav

Pre-gap length 0:00:04.08

Peak level 97.9 %
Extraction speed 2.2 X
Track quality 100.0 %
Test CRC 7976F12A
Copy CRC 7976F12A
Track not present in AccurateRip database
Copy OK

Track 3

Filename C:\Users\Aministrator\Desktop\Cedar Walton - Voices Deep Within (2009) [FLAC]\03 Another Star.wav

Pre-gap length 0:00:02.36

Peak level 97.9 %
Extraction speed 2.3 X
Track quality 100.0 %
Test CRC 4B2B8800
Copy CRC 4B2B8800
Accurately ripped (confidence 2) [B216D188] (AR v2)
Copy OK

Track 4

Filename C:\Users\Aministrator\Desktop\Cedar Walton - Voices Deep Within (2009) [FLAC]\04 Dear Ruth.wav

Pre-gap length 0:00:01.19

Peak level 97.9 %
Extraction speed 2.2 X
Track quality 100.0 %
Test CRC 258DA568
Copy CRC 258DA568
Accurately ripped (confidence 2) [144906BE] (AR v2)
Copy OK

Track 5

Filename C:\Users\Aministrator\Desktop\Cedar Walton - Voices Deep Within (2009) [FLAC]\05 Something in Common.wav

Pre-gap length 0:00:02.69

Peak level 97.9 %
Extraction speed 2.2 X
Track quality 100.0 %
Test CRC 3EE8A74C
Copy CRC 3EE8A74C
Accurately ripped (confidence 2) [E747DA9E] (AR v2)
Copy OK

Track 6

Filename C:\Users\Aministrator\Desktop\Cedar Walton - Voices Deep Within (2009) [FLAC]\06 Over the Rainbow.wav

Pre-gap length 0:00:02.64

Peak level 97.9 %
Extraction speed 2.1 X
Track quality 99.9 %
Test CRC 3285DDC4
Copy CRC 3285DDC4
Accurately ripped (confidence 2) [F87F8B99] (AR v2)
Copy OK

Track 7

Filename C:\Users\Aministrator\Desktop\Cedar Walton - Voices Deep Within (2009) [FLAC]\07 Naima.wav

Pre-gap length 0:00:02.50

Peak level 97.9 %
Extraction speed 2.2 X
Track quality 100.0 %
Test CRC BD273695
Copy CRC BD273695
Accurately ripped (confidence 2) [50DE70D2] (AR v2)
Copy OK

Track 8

Filename C:\Users\Aministrator\Desktop\Cedar Walton - Voices Deep Within (2009) [FLAC]\08 No Moe.wav

Pre-gap length 0:00:02.17

Peak level 97.9 %
Extraction speed 2.1 X
Track quality 99.9 %
Test CRC 931171D8
Copy CRC 931171D8
Accurately ripped (confidence 2) [CB0D04B3] (AR v2)
Copy OK


6 Traccia(e) estratta accuratamente
2 Traccia(e) non presente nel database AccurateRip

Some tracks could not be verified as accurate

No errors occurred

End of status report

==== Log checksum 320FBBDC948C7227DD6C014864A6344E1E22BFC8443D988E90F7C15B9F6E92F0 ====

Cedar Walton - Voices Deep Within (2009)

Cedar Walton - Voices Deep Within (2009)

Special thanks to the original releaser!

Welcome to my blog for more wonderful music

PLEASE DO NOT PROVIDE MIRROR LINKS!