Tags
Language
Tags

Charles Tolliver - Live In Tokyo (1973) {Strata-East 660-51-016 rec 1992}

Posted By: ruskaval
Charles Tolliver - Live In Tokyo (1973) {Strata-East 660-51-016 rec 1992}

Charles Tolliver - Live In Tokyo (1973) {Strata-East 660-51-016 rec 1992}
EAC rip (secure mode) | FLAC (tracks)+CUE+LOG -> 281 Mb | MP3 @320 -> 119 Mb
Full Artwork @ 300 dpi (jpg) -> 21 Mb | 5% repair rar
© 1973, 1992 Bellaphon ‎/ Strata-East | 660-51-016 / SECD 9015
Jazz / Hard Bop / Post Bop / Trumpet

CDs led by the great and vastly underrated trumpeter Charles Tolliver are few and far between. This live set (originally released by the Japanese Trio label) finds Tolliver leading his Music Inc. group, a quartet with pianist Stanley Cowell, bassist Clint Houston and drummer Clifford Barbaro. Unfortunately the live set does have a bit of distortion in spots (particularly on some of the trumpet notes); otherwise this strong postbop set would have received a higher rating. Tolliver plays quite well, stretching out on three of his originals and Cowell's "Effi," plus an adventurous rendition of "'Round Midnight."
Charles Tolliver - Live In Tokyo (1973) {Strata-East 660-51-016 rec 1992}


Personnel
Charles Tolliver - trumpet
Stanley Cowell - piano
Clint Houston - bass
Clifford Barbaro - drums

Recorded: 7 December 1973 at Yubinchokin Hall Tokyo, Japan in association with Takafumi Ohkuma and Kuniya Inaoka of Trio Records.

Tracks
01. Drought
02. Stretch
03. Truth
04. Effi
05. 'Round Midnight

EAC extraction logfile from 30. July 2010, 19:09 for CD
Charles Tolliver / Live In Tokyo

Used drive : HP DVD Writer 1170d Adapter: 1 ID: 0
Read mode : Secure with NO C2, accurate stream, disable cache
Read offset correction : 6
Overread into Lead-In and Lead-Out : No

Used output format : C:\Eac\Codecs\flac.exe (User Defined Encoder)
320 kBit/s
Additional command line options : -8 -V -T "artist=%a" -T "title=%t" -T "album=%g" -T "date=%y" -T "tracknumber=%n" -T "genre=%m" -T "comment=EAC Flac 1.1.2 -8" %s

Other options :
Fill up missing offset samples with silence : Yes
Delete leading and trailing silent blocks : No
Installed external ASPI interface


Track 1
Filename C:\Documents and Settings\tolliver\01 - Drought.wav

Pre-gap length 0:00:02.00

Peak level 82.6 %
Track quality 100.0 %
Test CRC 8B97D357
Copy CRC 8B97D357
Copy OK

Track 2
Filename C:\Documents and Settings\tolliver\02 - Stretch.wav

Pre-gap length 0:00:02.86

Peak level 86.0 %
Track quality 100.0 %
Test CRC 84CC219A
Copy CRC 84CC219A
Copy OK

Track 3
Filename C:\Documents and Settings\tolliver\03 - Truth.wav

Pre-gap length 0:00:04.37

Peak level 75.8 %
Track quality 99.9 %
Test CRC FC2B0C37
Copy CRC FC2B0C37
Copy OK

Track 4
Filename C:\Documents and Settings\tolliver\04 - Effi.wav

Pre-gap length 0:00:04.57

Peak level 82.4 %
Track quality 100.0 %
Test CRC F1F2BF10
Copy CRC F1F2BF10
Copy OK

Track 5
Filename C:\Documents and Settings\tolliver\05 - 'Round Midnight.wav

Pre-gap length 0:00:05.13

Peak level 81.3 %
Track quality 99.9 %
Test CRC E93125D9
Copy CRC E93125D9
Copy OK

No errors occured


End of status report


Charles Tolliver - Live In Tokyo (1973) {Strata-East 660-51-016 rec 1992}

Charles Tolliver - Live In Tokyo (1973) {Strata-East 660-51-016 rec 1992}



===