Subcategories
Tags
Language
Tags

Charlie Louvin - Murder Ballads And Disaster Songs (2008) {Tompkins Square TSQ2127}

Posted By: ruskaval
Charlie Louvin - Murder Ballads And Disaster Songs (2008) {Tompkins Square TSQ2127}

Charlie Louvin - Murder Ballads And Disaster Songs (2008) {Tompkins Square TSQ2127}
XLD rip (secure mode) | FLAC (tracks)+CUE+LOG -> 235 Mb | MP3 @320 -> 88 Mb
Full Artwork @ 300 dpi (png) -> 39 Mb | 5% repair rar
© 2008 Tompkins Square | TSQ2127
Country / Folk / Americana / Traditional Country / Country Boogie

Louvin's rough, weathered voice is many years removed from the clean, soaring work of his Louvin Brothers heyday but his joy in the material is audible, and as a re-encapsulation of the country and folk traditions he grew up with and helped shape, the album's a lovely treat. He revisits a number of songs he recorded with brother Ira, including "Katy Dear" and "Mary of the Wild Moor," an enjoyable instance of compare-and-contrast where these versions still work just fine on their own.

His choice of song about the Titanic's sinking, perhaps an inevitable choice given the album's theme, is an inspired one – "Down with the Old Canoe" a less familiar entry that concentrates on the spiritual lessons to be drawn from unpreparedness in the face of doom – and his voice, especially on the conclusion with a repetition of the final line, suits the material perfectly. Hearing Chris Scruggs' marvelous steel guitar breakdown on "Wreck of the Old 97" is almost reason enough to listen in, but the whole ensemble backing Louvin knows their stuff, while Scruggs and fellow guitarist Ben Hall add gentle backing vocals along the way as well. Holly George-Warren's accompanying essay/interview and Joshua Black Wilkins' photography flesh out the overall release excellently.
Charlie Louvin - Murder Ballads And Disaster Songs (2008) {Tompkins Square TSQ2127}


Tracklist
01 - Darling Corey
02 - Wreck Of The Old 97
03 - Wreck On The Highway
04 - Katy Dear
05 - Down With The Old Canoe
06 - The Little Grave In Georgia
07 - Dark As A Dungeon
08 - My Brother's Will
09 - Dixie Boll Weevil
10 - Is This My Destiny
11 - Mary Of The Wild Moor
12 - My Texas Girl

X Lossless Decoder version 20130407 (143.0)

XLD extraction logfile from 2015-01-26 15:10:41 -0800

Charlie Louvin / Sings Murder Ballads And Disaster Songs

Used drive : HL-DT-ST DVDRW GA32N (revision KE06)
Media type : Pressed CD

Ripper mode : XLD Secure Ripper
Disable audio cache : OK for the drive with a cache less than 1375KiB
Make use of C2 pointers : NO
Read offset correction : 103
Max retry count : 100
Gap status : Analyzed, Appended (except HTOA)

TOC of the extracted CD
Track | Start | Length | Start sector | End sector
––––––––––––––––––––––––––––-
1 | 00:00:00 | 02:39:67 | 0 | 11991
2 | 02:39:67 | 02:20:14 | 11992 | 22505
3 | 05:00:06 | 02:57:33 | 22506 | 35813
4 | 07:57:39 | 02:20:49 | 35814 | 46362
5 | 10:18:13 | 03:01:58 | 46363 | 59995
6 | 13:19:71 | 03:55:73 | 59996 | 77693
7 | 17:15:69 | 03:28:03 | 77694 | 93296
8 | 20:43:72 | 03:42:43 | 93297 | 109989
9 | 24:26:40 | 02:19:51 | 109990 | 120465
10 | 26:46:16 | 03:11:04 | 120466 | 134794
11 | 29:57:20 | 03:40:21 | 134795 | 151315
12 | 33:37:41 | 03:05:67 | 151316 | 165257

AccurateRip Summary (DiscID: 000fb56f-0094e625-93089b0c)
Track 01 : OK (v1+v2, confidence 6/6)
Track 02 : OK (v1+v2, confidence 6/6)
Track 03 : OK (v1+v2, confidence 6/6)
Track 04 : OK (v1+v2, confidence 6/6)
Track 05 : OK (v1+v2, confidence 6/6)
Track 06 : OK (v1+v2, confidence 6/6)
Track 07 : OK (v1+v2, confidence 6/6)
Track 08 : OK (v1+v2, confidence 6/6)
Track 09 : OK (v1+v2, confidence 6/6)
Track 10 : OK (v1+v2, confidence 6/6)
Track 11 : OK (v1+v2, confidence 6/6)
Track 12 : OK (v1+v2, confidence 6/6)
->All tracks accurately ripped.

All Tracks
Album gain : -5.97 dB
Peak : 0.973145
Statistics
Read error : 0
Jitter error (maybe fixed) : 0
Retry sector count : 0
Damaged sector count : 0

Track 01
Filename : /Volumes/OWC Mercury Elite Pro - #2/Needs something/ Music/Charlie Louvin - Murder Ballads And Disaster Songs (2008) [FLAC] {Tompkins Square }/01 - Darling Corey.flac
Pre-gap length : 00:02:00

Track gain : -6.07 dB
Peak : 0.963806
CRC32 hash (test run) : DE139DEC
CRC32 hash : DE139DEC
CRC32 hash (skip zero) : CC4BB61A
AccurateRip v1 signature : 83405D6F
AccurateRip v2 signature : 706C9E9C
->Accurately ripped (v1+v2, confidence 3+3/6)
Statistics
Read error : 0
Jitter error (maybe fixed) : 0
Retry sector count : 0
Damaged sector count : 0

Track 02
Filename : /Volumes/OWC Mercury Elite Pro - #2/Needs something/ Music/Charlie Louvin - Murder Ballads And Disaster Songs (2008) [FLAC] {Tompkins Square }/02 - Wreck Of The Old 97 .flac

Track gain : -6.05 dB
Peak : 0.972992
CRC32 hash (test run) : 21F7DDE4
CRC32 hash : 21F7DDE4
CRC32 hash (skip zero) : 5057A8DE
AccurateRip v1 signature : F250FAA9
AccurateRip v2 signature : 39299282
->Accurately ripped (v1+v2, confidence 3+3/6)
Statistics
Read error : 0
Jitter error (maybe fixed) : 0
Retry sector count : 0
Damaged sector count : 0

Track 03
Filename : /Volumes/OWC Mercury Elite Pro - #2/Needs something/ Music/Charlie Louvin - Murder Ballads And Disaster Songs (2008) [FLAC] {Tompkins Square }/03 - Wreck On The Highway.flac

Track gain : -6.84 dB
Peak : 0.967957
CRC32 hash (test run) : D2374AE2
CRC32 hash : D2374AE2
CRC32 hash (skip zero) : B17A28B9
AccurateRip v1 signature : D99AB17C
AccurateRip v2 signature : 9F1D7EF2
->Accurately ripped (v1+v2, confidence 3+3/6)
Statistics
Read error : 0
Jitter error (maybe fixed) : 0
Retry sector count : 0
Damaged sector count : 0

Track 04
Filename : /Volumes/OWC Mercury Elite Pro - #2/Needs something/ Music/Charlie Louvin - Murder Ballads And Disaster Songs (2008) [FLAC] {Tompkins Square }/04 - Katy Dear.flac
Pre-gap length : 00:00:30

Track gain : -5.20 dB
Peak : 0.973145
CRC32 hash (test run) : 569E4EA0
CRC32 hash : 569E4EA0
CRC32 hash (skip zero) : 52121594
AccurateRip v1 signature : EBB3934D
AccurateRip v2 signature : 542B6541
->Accurately ripped (v1+v2, confidence 3+3/6)
Statistics
Read error : 0
Jitter error (maybe fixed) : 0
Retry sector count : 0
Damaged sector count : 0

Track 05
Filename : /Volumes/OWC Mercury Elite Pro - #2/Needs something/ Music/Charlie Louvin - Murder Ballads And Disaster Songs (2008) [FLAC] {Tompkins Square }/05 - Down With The Old Canoe.flac
Pre-gap length : 00:01:17

Track gain : -6.42 dB
Peak : 0.950012
CRC32 hash (test run) : 82773518
CRC32 hash : 82773518
CRC32 hash (skip zero) : E01D3BD2
AccurateRip v1 signature : 877E3FD8
AccurateRip v2 signature : 98EB999E
->Accurately ripped (v1+v2, confidence 3+3/6)
Statistics
Read error : 0
Jitter error (maybe fixed) : 0
Retry sector count : 0
Damaged sector count : 0

Track 06
Filename : /Volumes/OWC Mercury Elite Pro - #2/Needs something/ Music/Charlie Louvin - Murder Ballads And Disaster Songs (2008) [FLAC] {Tompkins Square }/06 - The Little Grave In Georgia.flac

Track gain : -6.17 dB
Peak : 0.973022
CRC32 hash (test run) : D1739F4B
CRC32 hash : D1739F4B
CRC32 hash (skip zero) : DEC6D842
AccurateRip v1 signature : D32C8465
AccurateRip v2 signature : 321941C8
->Accurately ripped (v1+v2, confidence 3+3/6)
Statistics
Read error : 0
Jitter error (maybe fixed) : 0
Retry sector count : 0
Damaged sector count : 0

Track 07
Filename : /Volumes/OWC Mercury Elite Pro - #2/Needs something/ Music/Charlie Louvin - Murder Ballads And Disaster Songs (2008) [FLAC] {Tompkins Square }/07 - Dark As A Dungeon.flac

Track gain : -5.64 dB
Peak : 0.966553
CRC32 hash (test run) : 5CA6461C
CRC32 hash : 5CA6461C
CRC32 hash (skip zero) : 7E9AC0A6
AccurateRip v1 signature : 65D94DFC
AccurateRip v2 signature : 7B49A4C3
->Accurately ripped (v1+v2, confidence 3+3/6)
Statistics
Read error : 0
Jitter error (maybe fixed) : 0
Retry sector count : 0
Damaged sector count : 0

Track 08
Filename : /Volumes/OWC Mercury Elite Pro - #2/Needs something/ Music/Charlie Louvin - Murder Ballads And Disaster Songs (2008) [FLAC] {Tompkins Square }/08 - My Brother's Will.flac
Pre-gap length : 00:01:21

Track gain : -5.14 dB
Peak : 0.973083
CRC32 hash (test run) : A08FEDBA
CRC32 hash : A08FEDBA
CRC32 hash (skip zero) : 1EC80BDF
AccurateRip v1 signature : 86B92D08
AccurateRip v2 signature : 45ABE462
->Accurately ripped (v1+v2, confidence 3+3/6)
Statistics
Read error : 0
Jitter error (maybe fixed) : 0
Retry sector count : 0
Damaged sector count : 0

Track 09
Filename : /Volumes/OWC Mercury Elite Pro - #2/Needs something/ Music/Charlie Louvin - Murder Ballads And Disaster Songs (2008) [FLAC] {Tompkins Square }/09 - Dixie Boll Weevil.flac
Pre-gap length : 00:00:39

Track gain : -5.41 dB
Peak : 0.973083
CRC32 hash (test run) : 23C18F9C
CRC32 hash : 23C18F9C
CRC32 hash (skip zero) : E77140A6
AccurateRip v1 signature : B91B5D75
AccurateRip v2 signature : B97D4DB4
->Accurately ripped (v1+v2, confidence 3+3/6)
Statistics
Read error : 0
Jitter error (maybe fixed) : 0
Retry sector count : 0
Damaged sector count : 0

Track 10
Filename : /Volumes/OWC Mercury Elite Pro - #2/Needs something/ Music/Charlie Louvin - Murder Ballads And Disaster Songs (2008) [FLAC] {Tompkins Square }/10 - Is This My Destiny.flac

Track gain : -5.79 dB
Peak : 0.972961
CRC32 hash (test run) : 549CDC1C
CRC32 hash : 549CDC1C
CRC32 hash (skip zero) : 425D8B08
AccurateRip v1 signature : 3BEC6BA0
AccurateRip v2 signature : BD3620FD
->Accurately ripped (v1+v2, confidence 3+3/6)
Statistics
Read error : 0
Jitter error (maybe fixed) : 0
Retry sector count : 0
Damaged sector count : 0

Track 11
Filename : /Volumes/OWC Mercury Elite Pro - #2/Needs something/ Music/Charlie Louvin - Murder Ballads And Disaster Songs (2008) [FLAC] {Tompkins Square }/11 - Mary Of The Wild Moor.flac

Track gain : -6.10 dB
Peak : 0.963959
CRC32 hash (test run) : 535FDCB3
CRC32 hash : 535FDCB3
CRC32 hash (skip zero) : D85140B1
AccurateRip v1 signature : 72329181
AccurateRip v2 signature : A6C6F192
->Accurately ripped (v1+v2, confidence 3+3/6)
Statistics
Read error : 0
Jitter error (maybe fixed) : 0
Retry sector count : 0
Damaged sector count : 0

Track 12
Filename : /Volumes/OWC Mercury Elite Pro - #2/Needs something/ Music/Charlie Louvin - Murder Ballads And Disaster Songs (2008) [FLAC] {Tompkins Square }/12 - My Texas Girl.flac
Pre-gap length : 00:01:06

Track gain : -5.55 dB
Peak : 0.973145
CRC32 hash (test run) : 5ADA9AC8
CRC32 hash : 5ADA9AC8
CRC32 hash (skip zero) : 0E8E2B17
AccurateRip v1 signature : 746CED14
AccurateRip v2 signature : ED6AAB05
->Accurately ripped (v1+v2, confidence 3+3/6)
Statistics
Read error : 0
Jitter error (maybe fixed) : 0
Retry sector count : 0
Damaged sector count : 0

No errors occurred

End of status report

––-BEGIN XLD SIGNATURE––-
gI_FipDW5y38Qs1cL77BTtvAX7CHirLwwVzsLevbEL85gPwKBBLeZ_dvYuje5ZP8hZvaLV00rJ1lJI942P9X51qW4gPiGBmNaNzgPOO
––-END XLD SIGNATURE––-


Charlie Louvin - Murder Ballads And Disaster Songs (2008) {Tompkins Square TSQ2127}

Charlie Louvin - Murder Ballads And Disaster Songs (2008) {Tompkins Square TSQ2127}



===