Subcategories

Charlie Parker - Bird's Eyes: Last Unissued, Vol. 10 (1949-1950) {Philology W 200.2 rel 1999}

Posted By: ruskaval
Charlie Parker - Bird's Eyes: Last Unissued, Vol. 10 (1949-1950) {Philology W 200.2 rel 1999}

Charlie Parker - Bird's Eyes: Last Unissued, Vol. 10 (1949-1950) {Philology W 200.2 rel 1999}
EAC rip (secure mode) | FLAC (tracks)+CUE+LOG -> 391 Mb | MP3 @320 -> 187 Mb
Full Artwork @ 300 dpi (jpg) -> 19 Mb | 5% repair rar
© 1949-1950, 1999 Philology | W 200.2
Jazz / Bop / Bebop / Saxophone

Charlie Parker was a legendary Grammy Award–winning jazz saxophonist who, with Dizzy Gillespie, invented the musical style called bop or bebop. Charlie Parker was born on August 29, 1920, in Kansas City, Kansas. From 1935 to 1939, he played the Missouri nightclub scene with local jazz and blues bands. In 1945 he led his own group while performing with Dizzy Gillespie on the side. Together they invented bebop. In 1949, Parker made his European debut, giving his last performance several years later. He died a week later on March 12, 1955, in New York City.

More INFO & personnel

tracklist:
01 - Repetition
02 - April In Paris
03 - Easy To Love
04 - What Is This Thing Called Love
05 - What Is This Thing Called Love
06 - What Is This Thing Called Love
07 - What Is This Thing Called Love
08 - What Is This Thing Called Love
09 - What Is This Thing Called Love
10 - What Is This Thing Called Love
11 - What Is This Thing Called Love
12 - What Is This Thing Called Love
13 - What Is This Thing Called Love
14 - What Is This Thing Called Love
15 - What Is This Thing Called Love
16 - What Is This Thing Called Love
17 - What Is This Thing Called Love
18 - What Is This Thing Called Love
19 - What Is This Thing Called Love
20 - What Is This Thing Called Love
21 - What Is This Thing Called Love
22 - What Is This Thing Called Love
23 - What Is This Thing Called Love
24 - What Is This Thing Called Love
25 - Salt Peanuts
26 - Barbados
27 - 52nd Street Theme
28 - Out Of Nowhere

EAC extraction logfile from 28. February 2011, 17:57 for CD
Charlie Parker / Bird's Eyes - Vol. 10

Used drive : HP DVD Writer 1170d Adapter: 1 ID: 0
Read mode : Secure with NO C2, accurate stream, disable cache
Read offset correction : 6
Overread into Lead-In and Lead-Out : No

Used output format : C:\Program Files\FLAC\flac.exe (User Defined Encoder)
128 kBit/s
Additional command line options : -8 -V -T "ARTIST=%a" -T "TITLE=%t" -T "ALBUM=%g" -T "DATE=%y" -T "TRACKNUMBER=%n" -T "TOTALTRACKS=%x" -T "GENRE=%m" -T "ALBUM ARTIST=%v" -T "ALBUMARTIST=%v" -T "COMMENT=EAC V0.99 prebeta 4, Secure Mode,

Other options :
Fill up missing offset samples with silence : Yes
Delete leading and trailing silent blocks : No
Installed external ASPI interface


Track 1
Filename C:\Documents and Settings\birdeyes10\01 - Repetition.wav

Pre-gap length 0:00:02.42

Peak level 90.9 %
Track quality 100.0 %
Test CRC CE94CB18
Copy CRC CE94CB18
Copy OK

Track 2
Filename C:\Documents and Settings\birdeyes10\02 - April In Paris.wav

Peak level 100.0 %
Track quality 100.0 %
Test CRC 8015CA96
Copy CRC 8015CA96
Copy OK

Track 3
Filename C:\Documents and Settings\birdeyes10\03 - Easy To Love.wav

Peak level 98.6 %
Track quality 100.0 %
Test CRC 23F4703C
Copy CRC 23F4703C
Copy OK

Track 4
Filename C:\Documents and Settings\birdeyes10\04 - What Is This Thing Called Love.wav

Peak level 97.8 %
Track quality 100.0 %
Test CRC 383C994D
Copy CRC 383C994D
Copy OK

Track 5
Filename C:\Documents and Settings\birdeyes10\05 - What Is This Thing Called Love.wav

Pre-gap length 0:00:03.00

Peak level 97.9 %
Track quality 100.0 %
Test CRC 78FD85FB
Copy CRC 78FD85FB
Copy OK

Track 6
Filename C:\Documents and Settings\birdeyes10\06 - What Is This Thing Called Love.wav

Peak level 100.0 %
Track quality 100.0 %
Test CRC 7B4A2505
Copy CRC 7B4A2505
Copy OK

Track 7
Filename C:\Documents and Settings\birdeyes10\07 - What Is This Thing Called Love.wav

Peak level 88.3 %
Track quality 100.0 %
Test CRC A19A8696
Copy CRC A19A8696
Copy OK

Track 8
Filename C:\Documents and Settings\birdeyes10\08 - What Is This Thing Called Love.wav

Peak level 100.0 %
Track quality 100.0 %
Test CRC 8057E0ED
Copy CRC 8057E0ED
Copy OK

Track 9
Filename C:\Documents and Settings\birdeyes10\09 - What Is This Thing Called Love.wav

Pre-gap length 0:00:02.00

Peak level 100.0 %
Track quality 99.9 %
Test CRC 2471308F
Copy CRC 2471308F
Copy OK

Track 10
Filename C:\Documents and Settings\birdeyes10\10 - What Is This Thing Called Love.wav

Peak level 88.9 %
Track quality 100.0 %
Test CRC 93132189
Copy CRC 93132189
Copy OK

Track 11
Filename C:\Documents and Settings\birdeyes10\11 - What Is This Thing Called Love.wav

Peak level 91.9 %
Track quality 99.9 %
Test CRC 1DA2331B
Copy CRC 1DA2331B
Copy OK

Track 12
Filename C:\Documents and Settings\birdeyes10\12 - What Is This Thing Called Love.wav

Peak level 94.1 %
Track quality 99.9 %
Test CRC 0D26A22C
Copy CRC 0D26A22C
Copy OK

Track 13
Filename C:\Documents and Settings\birdeyes10\13 - What Is This Thing Called Love.wav

Pre-gap length 0:00:00.66

Peak level 91.2 %
Track quality 100.0 %
Test CRC 000CF7F3
Copy CRC 000CF7F3
Copy OK

Track 14
Filename C:\Documents and Settings\birdeyes10\14 - What Is This Thing Called Love.wav

Peak level 95.8 %
Track quality 100.0 %
Test CRC 00DCEDF8
Copy CRC 00DCEDF8
Copy OK

Track 15
Filename C:\Documents and Settings\birdeyes10\15 - What Is This Thing Called Love.wav

Peak level 89.2 %
Track quality 100.0 %
Test CRC C7904D92
Copy CRC C7904D92
Copy OK

Track 16
Filename C:\Documents and Settings\birdeyes10\16 - What Is This Thing Called Love.wav

Peak level 100.0 %
Track quality 100.0 %
Test CRC DD7CCD7B
Copy CRC DD7CCD7B
Copy OK

Track 17
Filename C:\Documents and Settings\birdeyes10\17 - What Is This Thing Called Love.wav

Pre-gap length 0:00:00.50

Peak level 90.4 %
Track quality 100.0 %
Test CRC FAF052D0
Copy CRC FAF052D0
Copy OK

Track 18
Filename C:\Documents and Settings\birdeyes10\18 - What Is This Thing Called Love.wav

Peak level 92.9 %
Track quality 99.9 %
Test CRC 1D08CEE2
Copy CRC 1D08CEE2
Copy OK

Track 19
Filename C:\Documents and Settings\birdeyes10\19 - What Is This Thing Called Love.wav

Peak level 73.9 %
Track quality 99.9 %
Test CRC 6E0F56AE
Copy CRC 6E0F56AE
Copy OK

Track 20
Filename C:\Documents and Settings\birdeyes10\20 - What Is This Thing Called Love.wav

Peak level 80.7 %
Track quality 99.9 %
Test CRC AFF58B7A
Copy CRC AFF58B7A
Copy OK

Track 21
Filename C:\Documents and Settings\birdeyes10\21 - What Is This Thing Called Love.wav

Pre-gap length 0:00:01.33

Peak level 87.1 %
Track quality 100.0 %
Test CRC C4F501B2
Copy CRC C4F501B2
Copy OK

Track 22
Filename C:\Documents and Settings\birdeyes10\22 - What Is This Thing Called Love.wav

Peak level 76.3 %
Track quality 100.0 %
Test CRC 5360EEC1
Copy CRC 5360EEC1
Copy OK

Track 23
Filename C:\Documents and Settings\birdeyes10\23 - What Is This Thing Called Love.wav

Peak level 72.7 %
Track quality 100.0 %
Test CRC D8B64C23
Copy CRC D8B64C23
Copy OK

Track 24
Filename C:\Documents and Settings\birdeyes10\24 - What Is This Thing Called Love.wav

Peak level 67.6 %
Track quality 100.0 %
Test CRC 813C0B80
Copy CRC 813C0B80
Copy OK

Track 25
Filename C:\Documents and Settings\birdeyes10\25 - Salt Peanuts.wav

Pre-gap length 0:00:02.66

Peak level 54.9 %
Track quality 100.0 %
Test CRC 95C52357
Copy CRC 95C52357
Copy OK

Track 26
Filename C:\Documents and Settings\birdeyes10\26 - Barbados.wav

Peak level 52.6 %
Track quality 100.0 %
Test CRC 4BC076DE
Copy CRC 4BC076DE
Copy OK

Track 27
Filename C:\Documents and Settings\birdeyes10\27 - 52nd Street Theme.wav

Peak level 55.8 %
Track quality 100.0 %
Test CRC 46500967
Copy CRC 46500967
Copy OK

Track 28
Filename C:\Documents and Settings\birdeyes10\28 - Out Of Nowhere.wav

Peak level 50.3 %
Track quality 100.0 %
Test CRC B57217BF
Copy CRC B57217BF
Copy OK

No errors occured


End of status report


Charlie Parker - Bird's Eyes: Last Unissued, Vol. 10 (1949-1950) {Philology W 200.2 rel 1999}

Charlie Parker - Bird's Eyes: Last Unissued, Vol. 10 (1949-1950) {Philology W 200.2 rel 1999}





NEXT -> more Charlie Parker on the way…


===