Subcategories

Charlie Parker - Bird's Eyes: Last Unissued, Vol. 18 (1946-1953) {Philology W 848.2 rel 1999}

Posted By: ruskaval
Charlie Parker - Bird's Eyes: Last Unissued, Vol. 18 (1946-1953) {Philology W 848.2 rel 1999}

Charlie Parker - Bird's Eyes: Last Unissued, Vol. 18 (1946-1953) {Philology W 848.2 rel 1999}
EAC rip (secure mode) | FLAC (tracks)+CUE+LOG -> 401 Mb | MP3 @320 -> 182 Mb
Full Artwork @ 300 dpi (jpg) -> 45 Mb | 5% repair rar
© 1946-53, 1999 Philology | W 848.2
Jazz / Bop / Bebop / Saxophone

Charlie Parker was a legendary Grammy Award–winning jazz saxophonist who, with Dizzy Gillespie, invented the musical style called bop or bebop. Charlie Parker was born on August 29, 1920, in Kansas City, Kansas. From 1935 to 1939, he played the Missouri nightclub scene with local jazz and blues bands. In 1945 he led his own group while performing with Dizzy Gillespie on the side. Together they invented bebop. In 1949, Parker made his European debut, giving his last performance several years later. He died a week later on March 12, 1955, in New York City.

More INFO & personnel

tracklist:
01 - Billie's Bounce
02 - Ornithology
03 - All the Things You Are
04 - Blue 'n' Boogie
05 - Anthropology
06 - Announcement - Tea for Two
07 - Body and Soul
08 - Cherokee
09 - Ornithology
10 - I Got Rhythm
11 - Cool Blues
12 - Ornithology
13 - Dizzy Atmosphere
14 - Out of Nowhere
15 - Ornithology
16 - Anthropology
17 - Stardust
18 - Interview

EAC extraction logfile from 28. March 2011, 18:53 for CD
Charlie Parker / Bird's Eyes Vol. 18

Used drive : HP DVD Writer 1170d Adapter: 1 ID: 0
Read mode : Secure with NO C2, accurate stream, disable cache
Read offset correction : 6
Overread into Lead-In and Lead-Out : No

Used output format : C:\Program Files\FLAC\flac.exe (User Defined Encoder)
128 kBit/s
Additional command line options : -8 -V -T "ARTIST=%a" -T "TITLE=%t" -T "ALBUM=%g" -T "DATE=%y" -T "TRACKNUMBER=%n" -T "TOTALTRACKS=%x" -T "GENRE=%m" -T "ALBUM ARTIST=%v" -T "ALBUMARTIST=%v" -T "COMMENT=EAC V0.99 prebeta 4, Secure Mode,

Other options :
Fill up missing offset samples with silence : Yes
Delete leading and trailing silent blocks : No
Installed external ASPI interface


Track 1
Filename C:\Documents and Settings\birdseyes18\01 - Billie's Bounce.wav

Pre-gap length 0:00:02.42

Peak level 86.8 %
Track quality 100.0 %
Test CRC 313023F5
Copy CRC 313023F5
Copy OK

Track 2
Filename C:\Documents and Settings\birdseyes18\02 - Ornithology.wav

Peak level 90.8 %
Track quality 100.0 %
Test CRC 2D5B1D5B
Copy CRC 2D5B1D5B
Copy OK

Track 3
Filename C:\Documents and Settings\birdseyes18\03 - All the Things You Are.wav

Peak level 100.0 %
Track quality 100.0 %
Test CRC 01F5DD95
Copy CRC 01F5DD95
Copy OK

Track 4
Filename C:\Documents and Settings\birdseyes18\04 - Blue 'n' Boogie.wav

Peak level 85.9 %
Track quality 100.0 %
Test CRC AD3E8318
Copy CRC AD3E8318
Copy OK

Track 5
Filename C:\Documents and Settings\birdseyes18\05 - Anthropology.wav

Peak level 73.8 %
Track quality 99.9 %
Test CRC 305209C3
Copy CRC 305209C3
Copy OK

Track 6
Filename C:\Documents and Settings\birdseyes18\06 - Announcement - Tea for Two.wav

Pre-gap length 0:00:00.33

Peak level 69.6 %
Track quality 100.0 %
Test CRC 0860DBC0
Copy CRC 0860DBC0
Copy OK

Track 7
Filename C:\Documents and Settings\birdseyes18\07 - Body and Soul.wav

Peak level 63.3 %
Track quality 100.0 %
Test CRC 82B3BAC4
Copy CRC 82B3BAC4
Copy OK

Track 8
Filename C:\Documents and Settings\birdseyes18\08 - Cherokee.wav

Peak level 73.7 %
Track quality 100.0 %
Test CRC 9E93D353
Copy CRC 9E93D353
Copy OK

Track 9
Filename C:\Documents and Settings\birdseyes18\09 - Ornithology.wav

Pre-gap length 0:00:00.72

Peak level 49.7 %
Track quality 100.0 %
Test CRC B7D7F4F8
Copy CRC B7D7F4F8
Copy OK

Track 10
Filename C:\Documents and Settings\birdseyes18\10 - I Got Rhythm.wav

Pre-gap length 0:00:00.89

Peak level 85.9 %
Track quality 100.0 %
Test CRC FF706F51
Copy CRC FF706F51
Copy OK

Track 11
Filename C:\Documents and Settings\birdseyes18\11 - Cool Blues.wav

Peak level 55.7 %
Track quality 100.0 %
Test CRC FEE3ABEC
Copy CRC FEE3ABEC
Copy OK

Track 12
Filename C:\Documents and Settings\birdseyes18\12 - Ornithology.wav

Peak level 66.1 %
Track quality 100.0 %
Test CRC 1BE8316C
Copy CRC 1BE8316C
Copy OK

Track 13
Filename C:\Documents and Settings\birdseyes18\13 - Dizzy Atmosphere.wav

Peak level 57.4 %
Track quality 100.0 %
Test CRC 6317BC60
Copy CRC 6317BC60
Copy OK

Track 14
Filename C:\Documents and Settings\birdseyes18\14 - Out of Nowhere.wav

Pre-gap length 0:00:00.45

Peak level 86.4 %
Track quality 100.0 %
Test CRC 8CDECB11
Copy CRC 8CDECB11
Copy OK

Track 15
Filename C:\Documents and Settings\birdseyes18\15 - Ornithology.wav

Peak level 85.8 %
Track quality 100.0 %
Test CRC 7EE5567E
Copy CRC 7EE5567E
Copy OK

Track 16
Filename C:\Documents and Settings\birdseyes18\16 - Anthropology.wav

Peak level 86.2 %
Track quality 100.0 %
Test CRC 876EB7F8
Copy CRC 876EB7F8
Copy OK

Track 17
Filename C:\Documents and Settings\birdseyes18\17 - Stardust.wav

Peak level 49.4 %
Track quality 100.0 %
Test CRC 5DC52E69
Copy CRC 5DC52E69
Copy OK

Track 18
Filename C:\Documents and Settings\birdseyes18\18 - Interview.wav

Peak level 68.0 %
Track quality 100.0 %
Test CRC D1E4C1E1
Copy CRC D1E4C1E1
Copy OK

No errors occured


End of status report


Charlie Parker - Bird's Eyes: Last Unissued, Vol. 18 (1946-1953) {Philology W 848.2 rel 1999}

Charlie Parker - Bird's Eyes: Last Unissued, Vol. 18 (1946-1953) {Philology W 848.2 rel 1999}




NEXT -> more Charlie Parker on the way…


===