Subcategories

Charlie Parker - Bird's Eyes: Last Unissued, Vol. 9 (1949-1953) {Philology W 120.2 rel 1996}

Posted By: ruskaval
Charlie Parker - Bird's Eyes: Last Unissued, Vol. 9 (1949-1953) {Philology W 120.2 rel 1996}

Charlie Parker - Bird's Eyes: Last Unissued, Vol. 9 (1949-1953) {Philology W 120.2 rel 1996}
EAC rip (secure mode) | FLAC (tracks)+CUE+LOG -> 319 Mb | MP3 @320 -> 188 Mb
Full Artwork @ 300 dpi (jpg) -> 22 Mb | 5% repair rar
© 1949-1953, 1996 Philology | W 120.2
Jazz / Bop / Bebop / Saxophone

Charlie Parker was a legendary Grammy Award–winning jazz saxophonist who, with Dizzy Gillespie, invented the musical style called bop or bebop. Charlie Parker was born on August 29, 1920, in Kansas City, Kansas. From 1935 to 1939, he played the Missouri nightclub scene with local jazz and blues bands. In 1945 he led his own group while performing with Dizzy Gillespie on the side. Together they invented bebop. In 1949, Parker made his European debut, giving his last performance several years later. He died a week later on March 12, 1955, in New York City.

More INFO & personnel

tracklist:
01 - I Cried For You
02 - I Can't Get Started
03 - Ornithology
04 - 52nd Street Theme
05 - Bird interviewed by Leonard Feather
06 - Jumpin' WIth Symphony Sid , Anthropology
07 - Embraceable You
08 - Cheryl
09 - Salt Peanuts , Jumpin' WIth Symphony Sid
10 - What's New , It's The Talk Of The Town
11 - Hot House
12 - Ornitology
13 - Embraceable You
14 - Your Father's Moustache
15 - Cool Blues
16 - Don't Blame Me
17 - Wahoo
18 - Bernie's Tune
19 - Norman Granz into Love Come Back To Me

EAC extraction logfile from 6. February 2011, 13:35 for CD
Charlie Parker / Bird's Eyes - Vol. 09

Used drive : HP DVD Writer 1170d Adapter: 1 ID: 0
Read mode : Secure with NO C2, accurate stream, disable cache
Read offset correction : 6
Overread into Lead-In and Lead-Out : No

Used output format : C:\Program Files\FLAC\flac.exe (User Defined Encoder)
128 kBit/s
Additional command line options : -8 -V -T "ARTIST=%a" -T "TITLE=%t" -T "ALBUM=%g" -T "DATE=%y" -T "TRACKNUMBER=%n" -T "TOTALTRACKS=%x" -T "GENRE=%m" -T "ALBUM ARTIST=%v" -T "ALBUMARTIST=%v" -T "COMMENT=EAC V0.99 prebeta 4, Secure Mode,

Other options :
Fill up missing offset samples with silence : Yes
Delete leading and trailing silent blocks : No
Installed external ASPI interface


Track 1
Filename C:\Documents and Settings\bird9\01 - I Cried For You.wav

Pre-gap length 0:00:02.44

Peak level 100.0 %
Track quality 100.0 %
Test CRC E60DEB20
Copy CRC E60DEB20
Copy OK

Track 2
Filename C:\Documents and Settings\bird9\02 - I Can't Get Started.wav

Peak level 97.2 %
Track quality 100.0 %
Test CRC 3B158639
Copy CRC 3B158639
Copy OK

Track 3
Filename C:\Documents and Settings\bird9\03 - Ornithology.wav

Peak level 77.4 %
Track quality 100.0 %
Test CRC 9F195EF8
Copy CRC 9F195EF8
Copy OK

Track 4
Filename C:\Documents and Settings\bird9\04 - 52nd Street Theme.wav

Peak level 91.1 %
Track quality 100.0 %
Test CRC C895E33D
Copy CRC C895E33D
Copy OK

Track 5
Filename C:\Documents and Settings\bird9\05 - Bird interviewed by Leonard Feather.wav

Peak level 96.4 %
Track quality 100.0 %
Test CRC 17A518F8
Copy CRC 17A518F8
Copy OK

Track 6
Filename C:\Documents and Settings\bird9\06 - Jumpin' WIth Symphony Sid , Anthropology.wav

Peak level 81.5 %
Track quality 100.0 %
Test CRC 8CE412F2
Copy CRC 8CE412F2
Copy OK

Track 7
Filename C:\Documents and Settings\bird9\07 - Embraceable You.wav

Peak level 87.3 %
Track quality 100.0 %
Test CRC E7833CCE
Copy CRC E7833CCE
Copy OK

Track 8
Filename C:\Documents and Settings\bird9\08 - Cheryl.wav

Peak level 83.6 %
Track quality 100.0 %
Test CRC 82AF2743
Copy CRC 82AF2743
Copy OK

Track 9
Filename C:\Documents and Settings\bird9\09 - Salt Peanuts , Jumpin' WIth Symphony Sid.wav

Peak level 77.0 %
Track quality 100.0 %
Test CRC 34DDEEA9
Copy CRC 34DDEEA9
Copy OK

Track 10
Filename C:\Documents and Settings\bird9\10 - What's New , It's The Talk Of The Town.wav

Peak level 100.0 %
Track quality 100.0 %
Test CRC E11B0FC6
Copy CRC E11B0FC6
Copy OK

Track 11
Filename C:\Documents and Settings\bird9\11 - Hot House.wav

Peak level 94.5 %
Track quality 100.0 %
Test CRC 24BF6C59
Copy CRC 24BF6C59
Copy OK

Track 12
Filename C:\Documents and Settings\bird9\12 - Ornitology.wav

Peak level 94.1 %
Track quality 100.0 %
Test CRC 4FEE5ADD
Copy CRC 4FEE5ADD
Copy OK

Track 13
Filename C:\Documents and Settings\bird9\13 - Embraceable You.wav

Peak level 94.6 %
Track quality 99.9 %
Test CRC E3ADF8DE
Copy CRC E3ADF8DE
Copy OK

Track 14
Filename C:\Documents and Settings\bird9\14 - Your Father's Moustache.wav

Peak level 94.6 %
Track quality 100.0 %
Test CRC 4397205C
Copy CRC 4397205C
Copy OK

Track 15
Filename C:\Documents and Settings\bird9\15 - Cool Blues.wav

Peak level 83.1 %
Track quality 100.0 %
Test CRC FCB8CB9A
Copy CRC FCB8CB9A
Copy OK

Track 16
Filename C:\Documents and Settings\bird9\16 - Don't Blame Me.wav

Peak level 66.4 %
Track quality 100.0 %
Test CRC 74EFC1B0
Copy CRC 74EFC1B0
Copy OK

Track 17
Filename C:\Documents and Settings\bird9\17 - Wahoo.wav

Peak level 62.9 %
Track quality 100.0 %
Test CRC 5B27E3FA
Copy CRC 5B27E3FA
Copy OK

Track 18
Filename C:\Documents and Settings\bird9\18 - Bernie's Tune.wav

Peak level 87.6 %
Track quality 99.9 %
Test CRC BA8F8E18
Copy CRC BA8F8E18
Copy OK

Track 19
Filename C:\Documents and Settings\bird9\19 - Norman Granz into Love Come Back To Me.wav

Peak level 82.1 %
Track quality 100.0 %
Test CRC EADB3443
Copy CRC EADB3443
Copy OK

No errors occured


End of status report


Charlie Parker - Bird's Eyes: Last Unissued, Vol. 9 (1949-1953) {Philology W 120.2 rel 1996}

Charlie Parker - Bird's Eyes: Last Unissued, Vol. 9 (1949-1953) {Philology W 120.2 rel 1996}





NEXT -> more Charlie Parker on the way…


===