Subcategories

Charlie Parker Quintet & Sextet - Bird In Boston: Live At The Hi-Hat 1953-1954 (2016) {2CD Fresh Sound Records}

Posted By: ruskaval
Charlie Parker Quintet & Sextet - Bird In Boston: Live At The Hi-Hat 1953-1954 (2016) {2CD Fresh Sound Records}

Charlie Parker Quintet & Sextet - Bird In Boston: Live At The Hi-Hat 1953-1954 (2016) {2CD Fresh Sound Records}
EAC rip (secure mode) | FLAC (tracks)+CUE+LOG -> 666 Mb | MP3 @320 -> 331 Mb
Full Artwork @ 600 dpi (jpg) -> 228 Mb | 5% repair rar
© 1953-54, 2016 Fresh Sound Records | FSR-CD 911 | 24bit Digitally Remastered
Jazz / Bebop / Bop / Saxophone

For over two decades, the Hi-Hat Club occupied a choice location among the jazz clubs of Boston’s South End district, at the corner of Columbus and Massachusetts Avenue. After the end of World War II, lesser luminaries took over the band-stand, and after a while entertainment practically stopped altogether.

Dave Coleman, a jazz promoter, had taken over management of the club in 1949. Through Coleman’s personal initiative, the Hi-Hat enjoyed its most successful years, and by 1951 it was the only club featuring a consistent policy of presenting modern jazz.

Between 1953 and 1954 Charlie Parker made several visits to Boston, where he was often hired to play as a “single” at the Hi-Hat, backed by local musicians. The performances contained in these two albums come from radio broadcasts emceed by famed disc-jockey “Symphony Sid” (Sid Torin), duplicating here his New York role from the control booth inside the Hi-Hat for his nightly radio show on WCOP.
Charlie Parker Quintet & Sextet - Bird In Boston: Live At The Hi-Hat 1953-1954 (2016) {2CD Fresh Sound Records}


tracklisting & personnel:
CD 1

01. Opening announcements by SST and Bird 0:40
02. Cool Blues (Parker) 5:38
03. Scrapple from the Apple (Parker) 7:11
04. SST introduces the members of the band 0:57
05. Laura (Raksin) 6:34
06. SST talks to Bird introduces the next tune 0:53
07. Cheryl (Parker) 5:43
08. Ornithology (Parker-Harris) 6:24
09. 52nd Street (Monk) and closing announcements 1:29
10. SST introduces Bird 0:09
11. Ornithology (Parker-Harris) 7:44
12. SST and Bird introduce the next number 0:30
13. My Little Suede Shoes (Parker) 7:09
14. Bird introduces the next tune 0:28
15. Now’s the Time (Parker) 6:57
16. Groovin’ High (Parker-Gillespie) 6:02

Charlie Parker Quintet & Sextet - Bird In Boston: Live At The Hi-Hat 1953-1954 (2016) {2CD Fresh Sound Records}


CD 2
01. Cool Blues (Parker) 6:48
02. Out of Nowhere (Green-Heyman) 5:42
03. My Funny Valentine (Rodgers-Hart) 6:32
04. Ornithology (Parker-Harris) 4:56
05. Cool Blues (Parker) 6:09
06. My Little Suede Shoes (Parker) incomplete 6:01
07. Bird talks to SST 1:01
08. Ornithology (Parker-Harris) 7:35
09. SST introduces the Hi-Hat All Stars and talks to Bird 1:23
10. Out of Nowhere (Green-Heyman) 4:22
11. Jumpin’ with Symphony Sid (Young) and closing announcements by SST 2:34
12. Now’s the Time (Parker) 9:13
13. SST and Bird introduce the Hi-Hat All Stars 0:50
14. Out of Nowhere (Green-Heyman) 5:48
15. My Little Suede Shoes (Parker) 5:01
16. Jumpin’ with Symphony Sid (Young) and closing announcements by SST 1:07

Charlie Parker Quintet & Sextet - Bird In Boston: Live At The Hi-Hat 1953-1954 (2016) {2CD Fresh Sound Records}


Note: The remastering of these recordings has vastly improved their sound quality, when compared to their first CD release in 1991.

Personnel on CD 1
Tracks #1-9: Charlie Parker, alto sax; Herb Pomeroy, trumpet; Dean Earle, piano; Bernie Griggs, bass; Bill Graham, drums.
Recorded Sunday, June 14, 1953

Tracks #10-16: Charlie Parker, alto sax; Herbie Williams, trumpet; Rollins Griffith, piano; Jimmy Woode, bass; Marquis Foster, drums.
Probably recorded on January 1954

Personnel on CD 2
Tracks #1-4: Charlie Parker, alto sax; Herb Pomeroy, trumpet; with probably Dean Earle, piano; Bernie Griggs, bass; Bill Graham, drums.
Probably recorded on June 1953

Tracks #5-11: Charlie Parker, alto sax; Herbie Williams, trumpet; Rollins Griffith, piano; Jimmy Woode, bass; Marquis Foster, drums.
Exact date unknown, but recorded between January 18-24, 1954

Tracks #12-16: Charlie Parker, alto sax; Herbie Williams, trumpet; Jay Migliori, tenor sax; Rollins Griffith, piano; Jimmy Woode, bass; George Solano, drums.
Recorded Saturday, January 23, 1954

Charlie Parker Quintet & Sextet - Bird In Boston: Live At The Hi-Hat 1953-1954 (2016) {2CD Fresh Sound Records}


Exact Audio Copy V1.1 from 23. June 2015

EAC extraction logfile from 4. January 2017, 22:52

Charlie Parker Quintet & Sextet / Bird In Boston - Live At The Hi-Hat 1953-1954 (CD1)

Used drive : TSSTcorpCDDVDW SE-208DB Adapter: 1 ID: 2

Read mode : Secure
Utilize accurate stream : Yes
Defeat audio cache : Yes
Make use of C2 pointers : No

Read offset correction : 6
Overread into Lead-In and Lead-Out : No
Fill up missing offset samples with silence : Yes
Delete leading and trailing silent blocks : No
Null samples used in CRC calculations : Yes
Used interface : Native Win32 interface for Win NT & 2000
Gap handling : Appended to previous track

Used output format : User Defined Encoder
Selected bitrate : 1024 kBit/s
Quality : High
Add ID3 tag : No
Command line compressor : C:\Program Files (x86)\FLAC Frontend\tools\flac.exe
Additional command line options : -8 -V -T "ARTIST=%artist%" -T "TITLE=%title%" -T "ALBUM=%albumtitle%" -T "DATE=%year%" -T "TRACKNUMBER=%tracknr%" -T "TOTALTRACKS=%numtracks%" -T "GENRE=%genre%" -T "ALBUMARTIST=%albumartist%" -T "ALBUM ARTIST=%albumartist%" -T "COMMENT=EAC Secure Mode, Test & Copy, AccurateRip, FLAC -8" %source%


TOC of the extracted CD

Track | Start | Length | Start sector | End sector
––––––––––––––––––––––––––––-
1 | 0:00.00 | 0:40.02 | 0 | 3001
2 | 0:40.02 | 5:37.67 | 3002 | 28343
3 | 6:17.69 | 7:11.36 | 28344 | 60704
4 | 13:29.30 | 0:56.58 | 60705 | 64962
5 | 14:26.13 | 6:34.34 | 64963 | 94546
6 | 21:00.47 | 0:52.42 | 94547 | 98488
7 | 21:53.14 | 5:44.05 | 98489 | 124293
8 | 27:37.19 | 6:23.34 | 124294 | 153052
9 | 34:00.53 | 1:29.14 | 153053 | 159741
10 | 35:29.67 | 0:09.63 | 159742 | 160479
11 | 35:39.55 | 7:47.06 | 160480 | 195510
12 | 43:26.61 | 0:29.48 | 195511 | 197733
13 | 43:56.34 | 7:09.36 | 197734 | 229944
14 | 51:05.70 | 0:28.33 | 229945 | 232077
15 | 51:34.28 | 6:58.03 | 232078 | 263430
16 | 58:32.31 | 6:05.39 | 263431 | 290844


Track 1

Filename D:\_EAC\Charlie Parker - Bird In Boston - Live At The Hi-Hat 1953-1954 (2016) [FLAC]\CD1\01 - Opening Announcements By SST And Bird.wav

Pre-gap length 0:00:02.00

Peak level 64.9 %
Extraction speed 0.6 X
Track quality 100.0 %
Test CRC 1DF8C911
Copy CRC 1DF8C911
Track not present in AccurateRip database
Copy OK

Track 2

Filename D:\_EAC\Charlie Parker - Bird In Boston - Live At The Hi-Hat 1953-1954 (2016) [FLAC]\CD1\02 - Cool Blues.wav

Peak level 98.8 %
Extraction speed 1.2 X
Track quality 100.0 %
Test CRC 77A8826D
Copy CRC 77A8826D
Track not present in AccurateRip database
Copy OK

Track 3

Filename D:\_EAC\Charlie Parker - Bird In Boston - Live At The Hi-Hat 1953-1954 (2016) [FLAC]\CD1\03 - Scrapple From The Apple.wav

Peak level 98.8 %
Extraction speed 1.3 X
Track quality 100.0 %
Test CRC D0DB396A
Copy CRC D0DB396A
Track not present in AccurateRip database
Copy OK

Track 4

Filename D:\_EAC\Charlie Parker - Bird In Boston - Live At The Hi-Hat 1953-1954 (2016) [FLAC]\CD1\04 - SST Introduces The Members Of The Band.wav

Peak level 98.8 %
Extraction speed 0.6 X
Track quality 99.8 %
Test CRC 2A4F6595
Copy CRC 2A4F6595
Track not present in AccurateRip database
Copy OK

Track 5

Filename D:\_EAC\Charlie Parker - Bird In Boston - Live At The Hi-Hat 1953-1954 (2016) [FLAC]\CD1\05 - Laura.wav

Peak level 98.8 %
Extraction speed 1.5 X
Track quality 100.0 %
Test CRC 6AF32BA8
Copy CRC 6AF32BA8
Track not present in AccurateRip database
Copy OK

Track 6

Filename D:\_EAC\Charlie Parker - Bird In Boston - Live At The Hi-Hat 1953-1954 (2016) [FLAC]\CD1\06 - SST Talks To Bird Introduces The Next Tune.wav

Peak level 98.8 %
Extraction speed 0.9 X
Track quality 100.0 %
Test CRC C1EA70B3
Copy CRC C1EA70B3
Track not present in AccurateRip database
Copy OK

Track 7

Filename D:\_EAC\Charlie Parker - Bird In Boston - Live At The Hi-Hat 1953-1954 (2016) [FLAC]\CD1\07 - Cheryl.wav

Peak level 98.8 %
Extraction speed 1.6 X
Track quality 100.0 %
Test CRC 099088FC
Copy CRC 099088FC
Track not present in AccurateRip database
Copy OK

Track 8

Filename D:\_EAC\Charlie Parker - Bird In Boston - Live At The Hi-Hat 1953-1954 (2016) [FLAC]\CD1\08 - Ornithology.wav

Pre-gap length 0:00:00.01

Peak level 98.5 %
Extraction speed 1.5 X
Track quality 99.9 %
Test CRC 3715B1BA
Copy CRC 3715B1BA
Track not present in AccurateRip database
Copy OK

Track 9

Filename D:\_EAC\Charlie Parker - Bird In Boston - Live At The Hi-Hat 1953-1954 (2016) [FLAC]\CD1\09 - 52nd Street And Closing Announcements.wav

Peak level 82.1 %
Extraction speed 1.2 X
Track quality 100.0 %
Test CRC 276D0F3E
Copy CRC 276D0F3E
Track not present in AccurateRip database
Copy OK

Track 10

Filename D:\_EAC\Charlie Parker - Bird In Boston - Live At The Hi-Hat 1953-1954 (2016) [FLAC]\CD1\10 - SST Introduces Bird.wav

Peak level 97.7 %
Extraction speed 0.3 X
Track quality 100.0 %
Test CRC CC85898F
Copy CRC CC85898F
Track not present in AccurateRip database
Copy OK

Track 11

Filename D:\_EAC\Charlie Parker - Bird In Boston - Live At The Hi-Hat 1953-1954 (2016) [FLAC]\CD1\11 - Ornithology.wav

Peak level 88.9 %
Extraction speed 1.7 X
Track quality 99.9 %
Test CRC F176116B
Copy CRC F176116B
Track not present in AccurateRip database
Copy OK

Track 12

Filename D:\_EAC\Charlie Parker - Bird In Boston - Live At The Hi-Hat 1953-1954 (2016) [FLAC]\CD1\12 - SST And Bird Introduce The Next Number.wav

Peak level 87.1 %
Extraction speed 0.8 X
Track quality 100.0 %
Test CRC 2857EA43
Copy CRC 2857EA43
Track not present in AccurateRip database
Copy OK

Track 13

Filename D:\_EAC\Charlie Parker - Bird In Boston - Live At The Hi-Hat 1953-1954 (2016) [FLAC]\CD1\13 - My Little Suede Shoes.wav

Peak level 87.1 %
Extraction speed 1.9 X
Track quality 100.0 %
Test CRC 15AE5730
Copy CRC 15AE5730
Track not present in AccurateRip database
Copy OK

Track 14

Filename D:\_EAC\Charlie Parker - Bird In Boston - Live At The Hi-Hat 1953-1954 (2016) [FLAC]\CD1\14 - Bird Introduces The Next Tune.wav

Peak level 87.1 %
Extraction speed 0.8 X
Track quality 100.0 %
Test CRC 320CC82B
Copy CRC 320CC82B
Track not present in AccurateRip database
Copy OK

Track 15

Filename D:\_EAC\Charlie Parker - Bird In Boston - Live At The Hi-Hat 1953-1954 (2016) [FLAC]\CD1\15 - Now's The Time.wav

Peak level 87.1 %
Extraction speed 2.0 X
Track quality 100.0 %
Test CRC 45143D76
Copy CRC 45143D76
Track not present in AccurateRip database
Copy OK

Track 16

Filename D:\_EAC\Charlie Parker - Bird In Boston - Live At The Hi-Hat 1953-1954 (2016) [FLAC]\CD1\16 - Groovin' High.wav

Peak level 87.1 %
Extraction speed 1.8 X
Track quality 99.9 %
Test CRC EEF6A528
Copy CRC EEF6A528
Track not present in AccurateRip database
Copy OK


None of the tracks are present in the AccurateRip database

No errors occurred

End of status report

==== Log checksum AD4029E53C8785B2F5EFC1512DDB25944254160442EC475AF1D6FAF72A739A83 ====

Exact Audio Copy V1.1 from 23. June 2015

EAC extraction logfile from 5. January 2017, 11:44

Charlie Parker Quintet & Sextet / Bird In Boston - Live At The Hi-Hat 1953-1954 (CD2)

Used drive : TSSTcorpCDDVDW SE-208DB Adapter: 1 ID: 2

Read mode : Secure
Utilize accurate stream : Yes
Defeat audio cache : Yes
Make use of C2 pointers : No

Read offset correction : 6
Overread into Lead-In and Lead-Out : No
Fill up missing offset samples with silence : Yes
Delete leading and trailing silent blocks : No
Null samples used in CRC calculations : Yes
Used interface : Native Win32 interface for Win NT & 2000
Gap handling : Appended to previous track

Used output format : User Defined Encoder
Selected bitrate : 1024 kBit/s
Quality : High
Add ID3 tag : No
Command line compressor : C:\Program Files (x86)\FLAC Frontend\tools\flac.exe
Additional command line options : -8 -V -T "ARTIST=%artist%" -T "TITLE=%title%" -T "ALBUM=%albumtitle%" -T "DATE=%year%" -T "TRACKNUMBER=%tracknr%" -T "TOTALTRACKS=%numtracks%" -T "GENRE=%genre%" -T "ALBUMARTIST=%albumartist%" -T "ALBUM ARTIST=%albumartist%" -T "COMMENT=EAC Secure Mode, Test & Copy, AccurateRip, FLAC -8" %source%


TOC of the extracted CD

Track | Start | Length | Start sector | End sector
––––––––––––––––––––––––––––-
1 | 0:00.00 | 6:47.14 | 0 | 30538
2 | 6:47.14 | 5:42.39 | 30539 | 56227
3 | 12:29.53 | 6:33.00 | 56228 | 85702
4 | 19:02.53 | 4:57.74 | 85703 | 108051
5 | 24:00.52 | 6:09.69 | 108052 | 135795
6 | 30:10.46 | 6:01.64 | 135796 | 162934
7 | 36:12.35 | 1:01.74 | 162935 | 167583
8 | 37:14.34 | 7:35.07 | 167584 | 201715
9 | 44:49.41 | 1:22.25 | 201716 | 207890
10 | 46:11.66 | 4:22.59 | 207891 | 227599
11 | 50:34.50 | 2:34.20 | 227600 | 239169
12 | 53:08.70 | 9:13.16 | 239170 | 280660
13 | 62:22.11 | 0:50.56 | 280661 | 284466
14 | 63:12.67 | 5:47.55 | 284467 | 310546
15 | 69:00.47 | 5:01.28 | 310547 | 333149
16 | 74:02.00 | 1:08.61 | 333150 | 338310


Track 1

Filename D:\_EAC\Charlie Parker - Bird In Boston - Live At The Hi-Hat 1953-1954 (2016) [FLAC]\CD2\01 - Cool Blues.wav

Pre-gap length 0:00:02.00

Peak level 97.7 %
Extraction speed 3.2 X
Track quality 100.0 %
Test CRC 04B1CCB2
Copy CRC 04B1CCB2
Track not present in AccurateRip database
Copy OK

Track 2

Filename D:\_EAC\Charlie Parker - Bird In Boston - Live At The Hi-Hat 1953-1954 (2016) [FLAC]\CD2\02 - Out Of Nowhere.wav

Peak level 97.7 %
Extraction speed 3.6 X
Track quality 100.0 %
Test CRC 6413107D
Copy CRC 6413107D
Track not present in AccurateRip database
Copy OK

Track 3

Filename D:\_EAC\Charlie Parker - Bird In Boston - Live At The Hi-Hat 1953-1954 (2016) [FLAC]\CD2\03 - My Funny Valentine.wav

Peak level 97.7 %
Extraction speed 4.0 X
Track quality 100.0 %
Test CRC F06F26A7
Copy CRC F06F26A7
Track not present in AccurateRip database
Copy OK

Track 4

Filename D:\_EAC\Charlie Parker - Bird In Boston - Live At The Hi-Hat 1953-1954 (2016) [FLAC]\CD2\04 - Ornithology.wav

Peak level 97.7 %
Extraction speed 4.1 X
Track quality 100.0 %
Test CRC CF6E3437
Copy CRC CF6E3437
Track not present in AccurateRip database
Copy OK

Track 5

Filename D:\_EAC\Charlie Parker - Bird In Boston - Live At The Hi-Hat 1953-1954 (2016) [FLAC]\CD2\05 - Cool Blues.wav

Peak level 97.7 %
Extraction speed 4.5 X
Track quality 100.0 %
Test CRC F638F8DB
Copy CRC F638F8DB
Track not present in AccurateRip database
Copy OK

Track 6

Filename D:\_EAC\Charlie Parker - Bird In Boston - Live At The Hi-Hat 1953-1954 (2016) [FLAC]\CD2\06 - My Little Suede Shoes.wav

Peak level 97.7 %
Extraction speed 4.1 X
Track quality 99.9 %
Test CRC B12FE9EF
Copy CRC B12FE9EF
Track not present in AccurateRip database
Copy OK

Track 7

Filename D:\_EAC\Charlie Parker - Bird In Boston - Live At The Hi-Hat 1953-1954 (2016) [FLAC]\CD2\07 - Bird Talks To SST.wav

Peak level 93.6 %
Extraction speed 3.3 X
Track quality 100.0 %
Test CRC 275E6BB5
Copy CRC 275E6BB5
Track not present in AccurateRip database
Copy OK

Track 8

Filename D:\_EAC\Charlie Parker - Bird In Boston - Live At The Hi-Hat 1953-1954 (2016) [FLAC]\CD2\08 - Ornithology.wav

Peak level 97.7 %
Extraction speed 5.2 X
Track quality 100.0 %
Test CRC D6F10C9A
Copy CRC D6F10C9A
Track not present in AccurateRip database
Copy OK

Track 9

Filename D:\_EAC\Charlie Parker - Bird In Boston - Live At The Hi-Hat 1953-1954 (2016) [FLAC]\CD2\09 - SST Introduces The Hi-Hat All Stars And Talks To Bird.wav

Peak level 86.9 %
Extraction speed 2.5 X
Track quality 99.8 %
Test CRC 30DB96AA
Copy CRC 30DB96AA
Track not present in AccurateRip database
Copy OK

Track 10

Filename D:\_EAC\Charlie Parker - Bird In Boston - Live At The Hi-Hat 1953-1954 (2016) [FLAC]\CD2\10 - Out Of Nowhere.wav

Peak level 97.7 %
Extraction speed 5.2 X
Track quality 100.0 %
Test CRC 1E6CB602
Copy CRC 1E6CB602
Track not present in AccurateRip database
Copy OK

Track 11

Filename D:\_EAC\Charlie Parker - Bird In Boston - Live At The Hi-Hat 1953-1954 (2016) [FLAC]\CD2\11 - Jumpin' With Symphony Syd And Closing Announcements By SST.wav

Peak level 97.7 %
Extraction speed 4.8 X
Track quality 100.0 %
Test CRC 04D3AD7E
Copy CRC 04D3AD7E
Track not present in AccurateRip database
Copy OK

Track 12

Filename D:\_EAC\Charlie Parker - Bird In Boston - Live At The Hi-Hat 1953-1954 (2016) [FLAC]\CD2\12 - Now's The Time.wav

Peak level 97.7 %
Extraction speed 5.8 X
Track quality 100.0 %
Test CRC DE6DDDB4
Copy CRC DE6DDDB4
Track not present in AccurateRip database
Copy OK

Track 13

Filename D:\_EAC\Charlie Parker - Bird In Boston - Live At The Hi-Hat 1953-1954 (2016) [FLAC]\CD2\13 - SST And Bird Introduce The Hi-Hat All Stars.wav

Peak level 97.7 %
Extraction speed 3.6 X
Track quality 100.0 %
Test CRC 838CBDFB
Copy CRC 838CBDFB
Track not present in AccurateRip database
Copy OK

Track 14

Filename D:\_EAC\Charlie Parker - Bird In Boston - Live At The Hi-Hat 1953-1954 (2016) [FLAC]\CD2\14 - Out Of Nowhere.wav

Peak level 97.7 %
Extraction speed 5.9 X
Track quality 100.0 %
Test CRC CD98C40E
Copy CRC CD98C40E
Track not present in AccurateRip database
Copy OK

Track 15

Filename D:\_EAC\Charlie Parker - Bird In Boston - Live At The Hi-Hat 1953-1954 (2016) [FLAC]\CD2\15 - My Little Suede Shoes.wav

Peak level 92.8 %
Extraction speed 5.9 X
Track quality 100.0 %
Test CRC 2DF09D7D
Copy CRC 2DF09D7D
Track not present in AccurateRip database
Copy OK

Track 16

Filename D:\_EAC\Charlie Parker - Bird In Boston - Live At The Hi-Hat 1953-1954 (2016) [FLAC]\CD2\16 - Jumpin' With Symphony Sid And Closing Announcements By SST.wav

Peak level 97.7 %
Extraction speed 4.3 X
Track quality 100.0 %
Test CRC 409119D1
Copy CRC 409119D1
Track not present in AccurateRip database
Copy OK


None of the tracks are present in the AccurateRip database

No errors occurred

End of status report

==== Log checksum C56CD221205DE2CD78009ED1FC0872F3486522DDB794282E7521EBDB0914F387 ====


Charlie Parker Quintet & Sextet - Bird In Boston: Live At The Hi-Hat 1953-1954 (2016) {2CD Fresh Sound Records}


thanks to Mal for the Artwork…




NEXT -> more Charlie Parker on the way…


===