Subcategories

Charlie Parker and His Orchestra - Swedish Schnapps (1951) {2014 Japan Universal 100 Series UCCU-99111}

Posted By: ruskaval
Charlie Parker and His Orchestra - Swedish Schnapps (1951) {2014 Japan Universal 100 Series UCCU-99111}

Charlie Parker and His Orchestra - Swedish Schnapps (1951) {2014 Japan Universal 100 Series UCCU-99111}
EAC rip (secure mode) | FLAC (tracks)+CUE+LOG -> 249 Mb | MP3 @320 -> 125 Mb
Full Artwork @ 600 dpi (jpg) -> 115 Mb | 5% repair rar
© 1951, 2014 Verve Records / Universal Japan | UCCU-99111 | Mono
Jazz / Bebop / Bop / Saxophone

Musicians like to observe that for all his notoriety as the wellspring of bebop, Charlie "Bird" Parker's music was loaded with the blues. SWEDISH SCHNAPPS is as good a place as any to make that connection with Parker's music, including as it does two of his most enduring bop heads based on the blues, "Au Privave" and "Blues For Alice." While you wouldn't mistake either composition for a Muddy Waters tune, both relate Bird's off-kilter accents and serpentine melodicism at walking tempos that let you hear what's actually going by, instead of leaving you astonished but bemused. To really drive the point home, there's "K.C. Blues," which finds the altoist at his hollerin' best, and "Lover Man," certainly one of the bluesiest 32-bar standards around.
Charlie Parker and His Orchestra - Swedish Schnapps (1951) {2014 Japan Universal 100 Series UCCU-99111}


Personnel:
[# 1-7]

Charlie Parker - alto saxophone
Red Rodney - trumpet
John Lewis - piano
Ray Brown - bass
Kenny Clarke - drums

Recorded at RCA Victor's 24th Street Studios, New York City ; August 8, 1951

[# 8-13]
Charlie Parker - alto saxophone
Miles Davis - trumpet
Walter Bishop, Jr. - piano
Teddy Kotick - bass
Max Roach - drums

Recorded in New York City ; January 17, 1951

[# 14-17]
Charlie Parker - alto saxophone
Kenny Dorham - trumpet
Al Haig - piano
Tommy Potter - bass
Max Roach - drums

Recorded in New York City ; May 5, 1949

tracklist:
01 - Si Si
02 - Swedish Schnapps (alternate take)
03 - Swedish Schnapps
04 - Back Home Blues (alternate take)
05 - Back Home Blues
06 - Lover Man
07 - Blues For Alice
08 - Au Privave (alternate take)
09 - Au Privave
10 - She Rote (alternate take)
11 - She Rote
12 - K. C. Blues
13 - Star Eyes
14 - Segment
15 - Diverse
16 - Passport (rare)
17 - Passport (common)

Exact Audio Copy V1.1 from 23. June 2015

EAC extraction logfile from 5. August 2016, 9:15

Charie Parker And His Orchestra / Swedish Schnapps

Used drive : TSSTcorpCDDVDW SE-208DB Adapter: 1 ID: 1

Read mode : Secure
Utilize accurate stream : Yes
Defeat audio cache : Yes
Make use of C2 pointers : No

Read offset correction : 6
Overread into Lead-In and Lead-Out : No
Fill up missing offset samples with silence : Yes
Delete leading and trailing silent blocks : No
Null samples used in CRC calculations : Yes
Used interface : Native Win32 interface for Win NT & 2000
Gap handling : Appended to previous track

Used output format : User Defined Encoder
Selected bitrate : 1024 kBit/s
Quality : High
Add ID3 tag : No
Command line compressor : C:\Program Files (x86)\FLAC Frontend\tools\flac.exe
Additional command line options : -8 -V -T "ARTIST=%artist%" -T "TITLE=%title%" -T "ALBUM=%albumtitle%" -T "DATE=%year%" -T "TRACKNUMBER=%tracknr%" -T "TOTALTRACKS=%numtracks%" -T "GENRE=%genre%" -T "ALBUMARTIST=%albumartist%" -T "ALBUM ARTIST=%albumartist%" -T "COMMENT=EAC Secure Mode, Test & Copy, AccurateRip, FLAC -8" %source%


TOC of the extracted CD

Track | Start | Length | Start sector | End sector
––––––––––––––––––––––––––––-
1 | 0:00.00 | 2:40.00 | 0 | 11999
2 | 2:40.00 | 3:17.00 | 12000 | 26774
3 | 5:57.00 | 3:13.50 | 26775 | 41299
4 | 9:10.50 | 2:39.00 | 41300 | 53224
5 | 11:49.50 | 2:50.12 | 53225 | 65986
6 | 14:39.62 | 3:26.00 | 65987 | 81436
7 | 18:05.62 | 2:49.38 | 81437 | 94149
8 | 20:55.25 | 2:41.25 | 94150 | 106249
9 | 23:36.50 | 2:45.62 | 106250 | 118686
10 | 26:22.37 | 3:12.00 | 118687 | 133086
11 | 29:34.37 | 3:08.50 | 133087 | 147236
12 | 32:43.12 | 3:27.25 | 147237 | 162786
13 | 36:10.37 | 3:42.50 | 162787 | 179486
14 | 39:53.12 | 3:22.25 | 179487 | 194661
15 | 43:15.37 | 3:18.08 | 194662 | 209519
16 | 46:33.45 | 2:57.22 | 209520 | 222816
17 | 49:30.67 | 2:59.45 | 222817 | 236286


Track 1

Filename D:\_EAC\Charlie Parker - Swedish Schnapps (1951) [FLAC] {UCCU-99111}\01 - Si Si.wav

Pre-gap length 0:00:02.00

Peak level 80.2 %
Extraction speed 0.8 X
Track quality 99.9 %
Test CRC 62B6A811
Copy CRC 62B6A811
Accurately ripped (confidence 3) [27C7BEB8] (AR v2)
Copy OK

Track 2

Filename D:\_EAC\Charlie Parker - Swedish Schnapps (1951) [FLAC] {UCCU-99111}\02 - Swedish Schnapps (alternate take).wav

Peak level 74.3 %
Extraction speed 1.1 X
Track quality 100.0 %
Test CRC A4DA8B41
Copy CRC A4DA8B41
Accurately ripped (confidence 3) [1EC08399] (AR v2)
Copy OK

Track 3

Filename D:\_EAC\Charlie Parker - Swedish Schnapps (1951) [FLAC] {UCCU-99111}\03 - Swedish Schnapps.wav

Peak level 88.7 %
Extraction speed 1.2 X
Track quality 100.0 %
Test CRC 8DB8514F
Copy CRC 8DB8514F
Accurately ripped (confidence 3) [A6C5CE9F] (AR v2)
Copy OK

Track 4

Filename D:\_EAC\Charlie Parker - Swedish Schnapps (1951) [FLAC] {UCCU-99111}\04 - Back Home Blues (alternate take).wav

Peak level 65.7 %
Extraction speed 1.0 X
Track quality 99.9 %
Test CRC 6A9F9500
Copy CRC 6A9F9500
Accurately ripped (confidence 3) [5A5AD2B0] (AR v2)
Copy OK

Track 5

Filename D:\_EAC\Charlie Parker - Swedish Schnapps (1951) [FLAC] {UCCU-99111}\05 - Back Home Blues.wav

Peak level 77.1 %
Extraction speed 1.2 X
Track quality 100.0 %
Test CRC 19AB6F4C
Copy CRC 19AB6F4C
Accurately ripped (confidence 3) [B7117DDF] (AR v2)
Copy OK

Track 6

Filename D:\_EAC\Charlie Parker - Swedish Schnapps (1951) [FLAC] {UCCU-99111}\06 - Lover Man.wav

Peak level 73.6 %
Extraction speed 1.3 X
Track quality 100.0 %
Test CRC 3CA9278A
Copy CRC 3CA9278A
Accurately ripped (confidence 3) [BC22E232] (AR v2)
Copy OK

Track 7

Filename D:\_EAC\Charlie Parker - Swedish Schnapps (1951) [FLAC] {UCCU-99111}\07 - Blues For Alice.wav

Peak level 68.2 %
Extraction speed 1.3 X
Track quality 100.0 %
Test CRC 91515CCC
Copy CRC 91515CCC
Accurately ripped (confidence 3) [BA502B9A] (AR v2)
Copy OK

Track 8

Filename D:\_EAC\Charlie Parker - Swedish Schnapps (1951) [FLAC] {UCCU-99111}\08 - Au Privave (alternate take).wav

Peak level 83.5 %
Extraction speed 1.1 X
Track quality 99.9 %
Test CRC BEA5CCB4
Copy CRC BEA5CCB4
Accurately ripped (confidence 3) [E1A2D9BD] (AR v2)
Copy OK

Track 9

Filename D:\_EAC\Charlie Parker - Swedish Schnapps (1951) [FLAC] {UCCU-99111}\09 - Au Privave.wav

Peak level 92.9 %
Extraction speed 1.4 X
Track quality 100.0 %
Test CRC 7EE3A759
Copy CRC 7EE3A759
Accurately ripped (confidence 3) [B2D02851] (AR v2)
Copy OK

Track 10

Filename D:\_EAC\Charlie Parker - Swedish Schnapps (1951) [FLAC] {UCCU-99111}\10 - She Rote (alternate take).wav

Peak level 77.0 %
Extraction speed 1.5 X
Track quality 100.0 %
Test CRC A467B93C
Copy CRC A467B93C
Accurately ripped (confidence 3) [C36F0E24] (AR v2)
Copy OK

Track 11

Filename D:\_EAC\Charlie Parker - Swedish Schnapps (1951) [FLAC] {UCCU-99111}\11 - She Rote.wav

Peak level 77.5 %
Extraction speed 1.5 X
Track quality 100.0 %
Test CRC B0F54710
Copy CRC B0F54710
Accurately ripped (confidence 3) [DE14D458] (AR v2)
Copy OK

Track 12

Filename D:\_EAC\Charlie Parker - Swedish Schnapps (1951) [FLAC] {UCCU-99111}\12 - K. C. Blues.wav

Peak level 84.5 %
Extraction speed 1.6 X
Track quality 100.0 %
Test CRC 5F7D7068
Copy CRC 5F7D7068
Accurately ripped (confidence 3) [47676F29] (AR v2)
Copy OK

Track 13

Filename D:\_EAC\Charlie Parker - Swedish Schnapps (1951) [FLAC] {UCCU-99111}\13 - Star Eyes.wav

Peak level 81.6 %
Extraction speed 1.6 X
Track quality 100.0 %
Test CRC 8A660DBD
Copy CRC 8A660DBD
Accurately ripped (confidence 3) [5A399D39] (AR v2)
Copy OK

Track 14

Filename D:\_EAC\Charlie Parker - Swedish Schnapps (1951) [FLAC] {UCCU-99111}\14 - Segment.wav

Peak level 100.0 %
Extraction speed 1.7 X
Track quality 100.0 %
Test CRC AE8A5C40
Copy CRC AE8A5C40
Accurately ripped (confidence 3) [CB59D424] (AR v2)
Copy OK

Track 15

Filename D:\_EAC\Charlie Parker - Swedish Schnapps (1951) [FLAC] {UCCU-99111}\15 - Diverse.wav

Peak level 77.2 %
Extraction speed 1.7 X
Track quality 100.0 %
Test CRC 5734B6B5
Copy CRC 5734B6B5
Accurately ripped (confidence 3) [C49B41CB] (AR v2)
Copy OK

Track 16

Filename D:\_EAC\Charlie Parker - Swedish Schnapps (1951) [FLAC] {UCCU-99111}\16 - Passport (rare).wav

Peak level 95.1 %
Extraction speed 1.4 X
Track quality 99.9 %
Test CRC 44C5B71B
Copy CRC 44C5B71B
Accurately ripped (confidence 3) [2D464652] (AR v2)
Copy OK

Track 17

Filename D:\_EAC\Charlie Parker - Swedish Schnapps (1951) [FLAC] {UCCU-99111}\17 - Passport (common).wav

Peak level 94.1 %
Extraction speed 1.4 X
Track quality 99.9 %
Test CRC C17E7055
Copy CRC C17E7055
Accurately ripped (confidence 3) [0C0BE440] (AR v2)
Copy OK


All tracks accurately ripped

No errors occurred

End of status report

==== Log checksum 34F2F1AD03049D2731007F6ED90FD39EFF2CBD6934AC73E2D4A4C60A18B5DC72 ====


Charlie Parker and His Orchestra - Swedish Schnapps (1951) {2014 Japan Universal 100 Series UCCU-99111}

Charlie Parker and His Orchestra - Swedish Schnapps (1951) {2014 Japan Universal 100 Series UCCU-99111}




===