Subcategories

Chet Baker - One Night In Tokyo (1987) [Remastered 2007]

Posted By: Bezz
Chet Baker - One Night In Tokyo (1987) [Remastered 2007]

Chet Baker - One Night In Tokyo (1987) [Remastered 2007]
EAC rip | FLAC+CUE+LOG | Scans | 2 CDs | 588 Mb(Incl. Recovery)
Genre ~ Cool | Label ~ Immortal Records

Although Miles Davis' masterpiece "Kind of Blue" might be the most listened to jazz album of all time-and it deserves to be-jazz fans should take note that "Chet Baker in Tokyo" more than holds its own as far as musical quality and inventiveness are concerned. To add to the intrigue, Miles, Evans, Coltrane, Adderley, et.al., were at their musical peaks when "Blue" was recorded. Chet, on the other hand, because of his unpredictability brought about by his much chronicled addiction, was considered by many critics to be a couple of decades past his peak . Yet, on that magical night in Tokyo, with dentures firmly in place, the jazz icon displayed incredible technique, ideas and control on such challenging tunes as "Seven Steps to Heaven," and "Four." With the masterful support of a rhythm ensemble reminicent of the best of trios that painted a special satisfying texture to the Stan Getz and Miles Davis groups, Baker played the most exciting rendition of "My Funny Valentine" that I've ever heard from Chet or anyone else. Perhaps most suprising for a musician not known for his range and technical dexterity, Baker's flurry of perfect notes formed a magnificent weave of spellbinding phrases. Solos by the swinging and lyrical Harold Danko on piano paced by the highly inventive bassist, Hein Van Der Geyn, and a Tony Williams like performance by drummer, John Engels, made the moments when Chet wasn't performing so pleasing and captivating to this listener that, at times, I nearly forgot that Chet was the headliner.
If the ballad, "For All We Know" fails to tug at the listener's heart strings, then he/she knows little of the passion that gives jazz its soul. Not only was his trumpet playing exciting and elegant, Chet's haunting vocal rendition of "Almost Blue" equaled his classic 1950's performance of "Everything Happens to Me."
From time to time, I wonder if those Japanese jazz fans understood how fortunate they were to watch and listen to a revitalized Chet Baker at his very best on that magical evening in Tokyo. ~ Amazon Customer's Review
Chet Baker - One Night In Tokyo (1987) [Remastered 2007]

01. Stella By Starlight (10:52)
02. For Minors Only (7:44)
03. You'd Be So Nice To Come Home To (10:57)
04. Arborway (13:54)

Chet Baker - One Night In Tokyo (1987) [Remastered 2007]

01. Four (7:23)
02. Almost Blue (7:55)
03. Beatrice (6:51)
04. My Funny Valentine (12:52)
05. Seven Steps To Heaven (7:59)

Exact Audio Copy V1.0 beta 3 from 29. August 2011

EAC extraction logfile from 14. November 2012, 20:51

Chet Baker / One Night in Tokyo (CD 1)

Used drive : Optiarc DVD RW AD-5280S Adapter: 2 ID: 1

Read mode : Secure
Utilize accurate stream : Yes
Defeat audio cache : Yes
Make use of C2 pointers : No

Read offset correction : 48
Overread into Lead-In and Lead-Out : No
Fill up missing offset samples with silence : Yes
Delete leading and trailing silent blocks : No
Null samples used in CRC calculations : Yes
Used interface : Native Win32 interface for Win NT & 2000
Gap handling : Appended to previous track

Used output format : User Defined Encoder
Selected bitrate : 1024 kBit/s
Quality : High
Add ID3 tag : No
Command line compressor : C:\Program Files (x86)\Exact Audio Copy\Flac\flac.exe
Additional command line options : -8 -V -T "ARTIST=%artist%" -T "TITLE=%title%" -T "ALBUM=%albumtitle%" -T "DATE=%year%" -T "TRACKNUMBER=%tracknr%" -T "GENRE=%genre%" -T "PERFORMER=%albuminterpret%" -T "COMPOSER=%composer%" %haslyrics%–tag-from-file=LYRICS="%lyricsfile%"%haslyrics% -T "ALBUMARTIST=%albumartist%" -T "ALBUM ARTIST=%albumartist%" -T "DISCNUMBER=%cdnumber%" -T "TOTALDISCS=%totalcds%" -T "TOTALTRACKS=%numtracks%" -T "COMMENT=EAC V1.0 beta 3, Secure Mode, Test & Copy, AccurateRip., FLAC -8" %source% -o %dest%

TOC of the extracted CD

Track | Start | Length | Start sector | End sector
––––––––––––––––––––––––––––-
1 | 0:00.00 | 10:52.18 | 0 | 48917
2 | 10:52.18 | 7:43.42 | 48918 | 83684
3 | 18:35.60 | 10:56.48 | 83685 | 132932
4 | 29:32.33 | 13:53.64 | 132933 | 195471

Track 1

Filename D:\Rip\Chet Baker\One Night in Tokyo (CD 1) (1987)\01 Stella By Starlight.wav

Pre-gap length 0:00:02.00

Peak level 94.8 %
Extraction speed 5.1 X
Track quality 100.0 %
Copy CRC 79C3D0B8
Accurately ripped (confidence 2) [0E27E753] (AR v2)
Copy OK

Track 2

Filename D:\Rip\Chet Baker\One Night in Tokyo (CD 1) (1987)\02 For Minors Only.wav

Peak level 94.8 %
Extraction speed 5.9 X
Track quality 100.0 %
Copy CRC 0901ABAC
Accurately ripped (confidence 2) [19F58A7F] (AR v2)
Copy OK

Track 3

Filename D:\Rip\Chet Baker\One Night in Tokyo (CD 1) (1987)\03 You'd be so Nice.wav

Peak level 96.7 %
Extraction speed 7.2 X
Track quality 100.0 %
Copy CRC C070DD9E
Accurately ripped (confidence 2) [4FC41945] (AR v2)
Copy OK

Track 4

Filename D:\Rip\Chet Baker\One Night in Tokyo (CD 1) (1987)\04 Arborway.wav

Peak level 94.8 %
Extraction speed 8.1 X
Track quality 100.0 %
Copy CRC 87280DC0
Accurately ripped (confidence 2) [F954A081] (AR v2)
Copy OK

All tracks accurately ripped

No errors occurred

End of status report

–– CUETools DB Plugin V2.1.3

[CTDB TOCID: LS07j1xBnluSFi4kEuhORKDkzLk-] found, Submit result: LS07j1xBnluSFi4kEuhORKDkzLk- has been confirmed
[8f16b471] (1/1) Accurately ripped

…………………………………………………………………………….

Exact Audio Copy V1.0 beta 3 from 29. August 2011

EAC extraction logfile from 14. November 2012, 21:01

Chet Baker / One Night in Tokyo (CD 2)

Used drive : Optiarc DVD RW AD-5280S Adapter: 2 ID: 1

Read mode : Secure
Utilize accurate stream : Yes
Defeat audio cache : Yes
Make use of C2 pointers : No

Read offset correction : 48
Overread into Lead-In and Lead-Out : No
Fill up missing offset samples with silence : Yes
Delete leading and trailing silent blocks : No
Null samples used in CRC calculations : Yes
Used interface : Native Win32 interface for Win NT & 2000
Gap handling : Appended to previous track

Used output format : User Defined Encoder
Selected bitrate : 1024 kBit/s
Quality : High
Add ID3 tag : No
Command line compressor : C:\Program Files (x86)\Exact Audio Copy\Flac\flac.exe
Additional command line options : -8 -V -T "ARTIST=%artist%" -T "TITLE=%title%" -T "ALBUM=%albumtitle%" -T "DATE=%year%" -T "TRACKNUMBER=%tracknr%" -T "GENRE=%genre%" -T "PERFORMER=%albuminterpret%" -T "COMPOSER=%composer%" %haslyrics%–tag-from-file=LYRICS="%lyricsfile%"%haslyrics% -T "ALBUMARTIST=%albumartist%" -T "ALBUM ARTIST=%albumartist%" -T "DISCNUMBER=%cdnumber%" -T "TOTALDISCS=%totalcds%" -T "TOTALTRACKS=%numtracks%" -T "COMMENT=EAC V1.0 beta 3, Secure Mode, Test & Copy, AccurateRip., FLAC -8" %source% -o %dest%

TOC of the extracted CD

Track | Start | Length | Start sector | End sector
––––––––––––––––––––––––––––-
1 | 0:00.00 | 7:23.21 | 0 | 33245
2 | 7:23.21 | 7:55.15 | 33246 | 68885
3 | 15:18.36 | 6:50.48 | 68886 | 99683
4 | 22:09.09 | 12:51.53 | 99684 | 157561
5 | 35:00.62 | 7:59.20 | 157562 | 193506

Track 1

Filename D:\Rip\Chet Baker\One Night in Tokyo (CD 2) (1987)\01 Four.wav

Pre-gap length 0:00:02.00

Peak level 94.5 %
Extraction speed 4.7 X
Track quality 100.0 %
Copy CRC D3D5CDE4
Accurately ripped (confidence 2) [88B537E0] (AR v2)
Copy OK

Track 2

Filename D:\Rip\Chet Baker\One Night in Tokyo (CD 2) (1987)\02 Almost Blue.wav

Peak level 100.0 %
Extraction speed 5.8 X
Track quality 100.0 %
Copy CRC 5F64E6DD
Accurately ripped (confidence 2) [EE783EAB] (AR v2)
Copy OK

Track 3

Filename D:\Rip\Chet Baker\One Night in Tokyo (CD 2) (1987)\03 Beatrice.wav

Peak level 100.0 %
Extraction speed 6.6 X
Track quality 100.0 %
Copy CRC ED235144
Accurately ripped (confidence 2) [3772DDC2] (AR v2)
Copy OK

Track 4

Filename D:\Rip\Chet Baker\One Night in Tokyo (CD 2) (1987)\04 My Funny Valentine.wav

Peak level 100.0 %
Extraction speed 7.7 X
Track quality 100.0 %
Copy CRC 345677BE
Accurately ripped (confidence 2) [E4772DD4] (AR v2)
Copy OK

Track 5

Filename D:\Rip\Chet Baker\One Night in Tokyo (CD 2) (1987)\05 Seven Steps to Heaven.wav

Peak level 100.0 %
Extraction speed 7.9 X
Track quality 100.0 %
Copy CRC 4886B570
Accurately ripped (confidence 2) [FA7876F5] (AR v2)
Copy OK

All tracks accurately ripped

No errors occurred

End of status report

–– CUETools DB Plugin V2.1.3

[CTDB TOCID: t7OSQe2U8t12JOdlOlvUUlPw70g-] found, Submit result: t7OSQe2U8t12JOdlOlvUUlPw70g- has been confirmed
[58883c8a] (1/1) Accurately ripped

Chet Baker - One Night In Tokyo (1987) [Remastered 2007]

Special thanks to Noitulove and papa1954!

Welcome to my blog for more wonderful music

PLEASE DO NOT PROVIDE MIRROR LINKS!