Subcategories

Cliff Richard & The Drifters – Cliff (1987)(EMI/MFP)

Posted By: janwal46
Cliff Richard & The Drifters – Cliff (1987)(EMI/MFP)

Cliff Richard & The Drifters – Cliff (1987)(EMI/MFP)

Cliff Richard & The Drifters – Cliff (1987)(EMI/MFP)
1989 | Pop/Rock | EAC RIP | FLAC+CUE+LOG+HQ-Covers(400Dpi) | 270Mb+11Mb

As a logical follow-up on my Shadows posts I now will post some albums of Cliff Richard and The shadows. On this album you will find a collection of the oldest (mono) recordings of Cliff made around 1959 and at that time The Shadows still were called The Drifters with the later first Shadows members i.e. Jet Harris on bass guitar, Hank B. Marvin on lead guitar, Bruce Welch on rhythm guitar and Tony Meehan on drums.

Tracklist:

01 – Apron Strings
02 – My Babe
03 – Down The Line
04 – I Got A Feeling
05 – Jet Black
06 – Baby I Don’t Care
07 – Donna
08 – Move It
09 – Ready Teddy
10 – Too Much
11 – Don’t Bug Me Baby
12 – Driftin’
13 – That’ll Be The Day
14 – Be-Bop-A-Lulla
15 – Danny
16 – Whole Lotta Shakin’ Goin’ On

Exact Audio Copy V0.99 prebeta 4 from 23. January 2008

EAC extraction logfile from 8. June 2009, 22:00

Cliff Richard & The Drifters / Cliff Richard & The Drifters

Used drive : Optiarc DVD RW AD-7173A Adapter: 1 ID: 0

Read mode : Secure
Utilize accurate stream : Yes
Defeat audio cache : No
Make use of C2 pointers : No

Read offset correction : 48
Overread into Lead-In and Lead-Out : No
Fill up missing offset samples with silence : Yes
Delete leading and trailing silent blocks : No
Null samples used in CRC calculations : No
Used interface : Native Win32 interface for Win NT & 2000

Used output format : Internal WAV Routines
Sample format : 44.100 Hz; 16 Bit; Stereo


TOC of the extracted CD

Track | Start | Length | Start sector | End sector
––––––––––––––––––––––––––––-
1 | 0:00.32 | 2:40.30 | 32 | 12061
2 | 2:40.62 | 2:20.13 | 12062 | 22574
3 | 5:01.00 | 1:59.32 | 22575 | 31531
4 | 7:00.32 | 1:47.63 | 31532 | 39619
5 | 8:48.20 | 2:13.05 | 39620 | 49599
6 | 11:01.25 | 2:08.05 | 49600 | 59204
7 | 13:09.30 | 3:06.37 | 59205 | 73191
8 | 16:15.67 | 2:08.45 | 73192 | 82836
9 | 18:24.37 | 1:47.08 | 82837 | 90869
10 | 20:11.45 | 2:15.50 | 90870 | 101044
11 | 22:27.20 | 2:15.67 | 101045 | 111236
12 | 24:43.12 | 2:46.40 | 111237 | 123726
13 | 27:29.52 | 2:08.73 | 123727 | 133399
14 | 29:38.50 | 2:12.72 | 133400 | 143371
15 | 31:51.47 | 2:53.43 | 143372 | 156389
16 | 34:45.15 | 2:58.72 | 156390 | 169811


Range status and errors

Selected range

Filename G:\AVAXHOME\Cliff Richard & The Drifters - Cliff (1987)\Cliff Richard & The Drifters - Cliff.wav

Peak level 100.0 %
Range quality 100.0 %
Copy CRC 189AEE0E
Copy OK

No errors occurred


AccurateRip summary

Track 1 accurately ripped (confidence 1) [95A3ED4F]
Track 2 accurately ripped (confidence 1) [C09A37F5]
Track 3 accurately ripped (confidence 1) [45EFE61A]
Track 4 accurately ripped (confidence 1) [2AA7F847]
Track 5 accurately ripped (confidence 1) [45FFFB32]
Track 6 accurately ripped (confidence 1) [4C8A7A7D]
Track 7 accurately ripped (confidence 1) [E6B84DEA]
Track 8 accurately ripped (confidence 1) [A548804F]
Track 9 accurately ripped (confidence 1) [D2AD742E]
Track 10 accurately ripped (confidence 1) [D29B45A3]
Track 11 accurately ripped (confidence 1) [0F7FD9D1]
Track 12 accurately ripped (confidence 1) [4B9680AB]
Track 13 accurately ripped (confidence 1) [A00DD181]
Track 14 accurately ripped (confidence 1) [B63345F2]
Track 15 accurately ripped (confidence 1) [74C3D6CC]
Track 16 accurately ripped (confidence 1) [6E38904F]

All tracks accurately ripped

End of status report

RIPPED BY JANWAL46

Links: