Subcategories

Concrete Blonde - Walking In London (FLAC)

Posted By: zeus2zeus
Concrete Blonde - Walking In London (FLAC)

Concrete Blonde - Walking In London
EAC rip | FLAC tracks | cue + log + m3u | 280MB | 1% Rec. | Covers
Label: IRS | Alternative Rock | Release: March, 1992
*Source: Personal cd collection*

Great album featuring the stellar vocals of Johnette Napolitano and the beautiful hit "Someday"


Concrete Blonde - Walking In London (FLAC)


Concrete Blonde followed up their gold record Bloodletting, containing the left-field hit "Joey," with this 1992 release. Walking in London, the band's fourth album, was produced by the band along with Chris Tsangarides and includes guest musicians Tom Petersson of Cheap Trick on bass and Wall of Voodoo's Andy Prieboy on vocals. Johnette Napolitano is in fine voice on Walking in London and the playing is as inspired as ever with original drummer Harry Rushakoff rejoining the band. However, the album reprises many themes from earlier albums with less satisfying results such as the vignette on urban life, "City Screaming." That said, there are some inspired moments. The leadoff track and single, "Ghost of a Texas Ladies' Man," is a hyperkinetic ghost story with eerie vocals and alterna-twang guitar. Both "Someday" and "Long Time Ago" are both slices of bright, singalong pop with an alternative bent. They also succeed on the gorgeous ballad "Les Ceours Jumeaux." Accordion adds to the romantic feel created by the lush background vocals and bilingual lyrics. Overall, a good record but not nearly as pleasing as its breakthrough predecessor. ~ ~ All Music Guide

Tracklist:

01. Ghost of a Texas Ladies' Man
02. Walking In London
03. Les Coeurs Jumeaux
04. Woman to Woman
05. Why Don't You See Me
06. City Screaming
07. Someday
08. I Wanna Be Your Friend Again
09. …Long Time Ago
10. It's a Man's World

Exact Audio Copy V0.99 prebeta 5 from 4. May 2009

EAC extraction logfile from 10. October 2009, 2:30

Concrete Blonde / Walking In London

Used drive : ATAPI DVD A DH20A4H Adapter: 1 ID: 0

Read mode : Secure
Utilize accurate stream : Yes
Defeat audio cache : Yes
Make use of C2 pointers : No

Read offset correction : 6
Overread into Lead-In and Lead-Out : No
Fill up missing offset samples with silence : Yes
Delete leading and trailing silent blocks : No
Null samples used in CRC calculations : No
Used interface : Native Win32 interface for Win NT & 2000
Gap handling : Appended to previous track

Used output format : User Defined Encoder
Selected bitrate : 768 kBit/s
Quality : High
Add ID3 tag : No
Command line compressor : C:\Program Files\Exact Audio Copy\FLAC\FLAC.EXE
Additional command line options : -V -8 -T "artist=%a" -T "title=%t" -T "album=%g" -T "date=%y" -T "tracknumber=%n" -T "genre=%m" %s


TOC of the extracted CD

Track | Start | Length | Start sector | End sector
––––––––––––––––––––––––––––-
1 | 0:00.00 | 3:51.12 | 0 | 17336
2 | 3:51.12 | 6:43.70 | 17337 | 47631
3 | 10:35.07 | 4:15.03 | 47632 | 66759
4 | 14:50.10 | 4:30.27 | 66760 | 87036
5 | 19:20.37 | 4:31.43 | 87037 | 107404
6 | 23:52.05 | 4:01.37 | 107405 | 125516
7 | 27:53.42 | 3:30.30 | 125517 | 141296
8 | 31:23.72 | 5:18.63 | 141297 | 165209
9 | 36:42.60 | 2:16.32 | 165210 | 175441
10 | 38:59.17 | 4:57.23 | 175442 | 197739


Track 1

Filename C:\EAC Extraction Directory\01. Concrete Blonde - Ghost Of A Texas Ladies' Man (Walking In London).wav

Pre-gap length 0:00:02.00

Peak level 100.0 %
Track quality 100.0 %
Copy CRC 8FE7373A
Accurately ripped (confidence 56) [B136CBD5]
Copy OK

Track 2

Filename C:\EAC Extraction Directory\02. Concrete Blonde - Walking In London (Walking In London).wav

Peak level 100.0 %
Track quality 100.0 %
Copy CRC 0996EB3F
Accurately ripped (confidence 56) [DA7A38CA]
Copy OK

Track 3

Filename C:\EAC Extraction Directory\03. Concrete Blonde - Les Coeurs Jumeaux (Walking In London).wav

Pre-gap length 0:00:00.50

Peak level 100.0 %
Track quality 99.9 %
Copy CRC F51501D6
Accurately ripped (confidence 55) [70959C8B]
Copy OK

Track 4

Filename C:\EAC Extraction Directory\04. Concrete Blonde - Woman To Woman (Walking In London).wav

Pre-gap length 0:00:00.10

Peak level 100.0 %
Track quality 100.0 %
Copy CRC C6FFD7BA
Accurately ripped (confidence 55) [B7F0F109]
Copy OK

Track 5

Filename C:\EAC Extraction Directory\05. Concrete Blonde - Why Don't You See Me (Walking In London).wav

Pre-gap length 0:00:01.45

Peak level 100.0 %
Track quality 100.0 %
Copy CRC 5119E82C
Accurately ripped (confidence 56) [3B005548]
Copy OK

Track 6

Filename C:\EAC Extraction Directory\06. Concrete Blonde - City Screaming (Walking In London).wav

Pre-gap length 0:00:00.18

Peak level 100.0 %
Track quality 100.0 %
Copy CRC 4024974B
Accurately ripped (confidence 55) [1521BD21]
Copy OK

Track 7

Filename C:\EAC Extraction Directory\07. Concrete Blonde - Someday (Walking In London).wav

Peak level 100.0 %
Track quality 100.0 %
Copy CRC 3496FB6C
Accurately ripped (confidence 55) [E26F1FBC]
Copy OK

Track 8

Filename C:\EAC Extraction Directory\08. Concrete Blonde - I Wanna Be Your Friend Again (Walking In London).wav

Pre-gap length 0:00:00.10

Peak level 100.0 %
Track quality 100.0 %
Copy CRC 2B7B7B48
Accurately ripped (confidence 54) [AFEC4194]
Copy OK

Track 9

Filename C:\EAC Extraction Directory\09. Concrete Blonde - …Long Time Ago (Walking In London).wav

Pre-gap length 0:00:01.08

Peak level 100.0 %
Track quality 100.0 %
Copy CRC 0DE5E044
Accurately ripped (confidence 54) [4CA35D18]
Copy OK

Track 10

Filename C:\EAC Extraction Directory\10. Concrete Blonde - It's A Man's World (Walking In London).wav

Pre-gap length 0:00:01.15

Peak level 100.0 %
Track quality 100.0 %
Copy CRC F1195447
Accurately ripped (confidence 55) [FB5B844B]
Copy OK


All tracks accurately ripped

No errors occurred

End of status report


- - - - - - - - - - - - - - - - - - - - - - - - - - - - - - - - - - -

***RapidShare Links***

Concrete pt.1
Concrete pt.2

*Password - ->> Argento

- - - - - - - - - - - - - - - - - - - - - - - - - - - - - - - - - - - - - -


Concrete Blonde - Walking In London (FLAC)

*Posted by zeus2zeus

***No Mirrors Please***


*More excellent music, films, etc. - ->> My Blog

*Enjoy this great album!