Tags
Language
Tags

Dave McKenna - Live At Maybeck (1990) {Concord Jazz CCD-4410}

Posted By: ruskaval
Dave McKenna - Live At Maybeck (1990) {Concord Jazz CCD-4410}

Dave McKenna - Live At Maybeck (1990) {Concord Jazz CCD-4410}
EAC rip (secure mode) | FLAC (tracks)+CUE+LOG -> 257 Mb | MP3 @320 -> 157 Mb
Full Artwork @ 300 dpi (jpg) -> 32 Mb | 5% repair rar
© 1990 Concord Jazz | CCD-4410
Jazz / Mainstream Jazz / Standards / Stride / Piano

Live at Maybeck Recital Hall is an album of solo performances by jazz pianist Dave McKenna, recorded in 1989. When Joanne Brackeen first arrived at the tiny Maybeck Recital Hall for a concert in June 1989, she was so delighted with the piano and the acoustics that she insisted that Concord owner Carl Jefferson arrange to have her performance there recorded. The message hit home and over the next few years, several dozen solo piano concerts were duly recorded by the label until the hall was sold and it was no longer available for tapings. One of the first concerts to follow Brackeen's featured Dave McKenna. He seems in a particularly lyrical mood throughout this afternoon concert, though his trademark buoyant bassline is often present.

While there are a number of gorgeous stand-alone songs, including the gliding "Dream Dancing," a lush, introspective "Detour Ahead," and an inventive, playful take of Duke Ellington's "C Jam Blues" (with a bassline inspired by boogie-woogie pianist Meade "Lux" Lewis' recording), there are several medleys that are connected by a common theme in their titles. Beautifully recorded and performed, this valuable CD was one of many Maybeck titles that was unfortunately deleted from Concord's active catalog.
Dave McKenna - Live At Maybeck (1990) {Concord Jazz CCD-4410}


Personnel:

DAVE McKENNA, solo piano

Recorded live at Maybeck Recital Hall, November 1989

Track Listing:

01. Spoken Introduction
02. Dream Dancing
03. Detour Ahead
04. Exactly Like You
05. I'm Glad There Is You/I'm Glad I Waited For You
06. Knowledge Medley: Teach Me Tonight/School Days/An Apple For The Teacher/I Didn't Know About You
07. Knowledge Medley (Part 2): I Didn't Know What Time It Was/I Wish I Knew/I Don't Know Enough About…
08. I Don't Know Why (I Just Do)/You'll Never Know
09. I Never Knew
10. 'C' Jam Blues
11. Limehouse Blues

EAC extraction logfile from 6. August 2010, 9:29 for CD
Dave McKenna / Live At Maybeck

Used drive : HP DVD Writer 1170d Adapter: 1 ID: 1
Read mode : Secure with NO C2, accurate stream, disable cache
Read offset correction : 6
Overread into Lead-In and Lead-Out : No

Used output format : C:\Eac\Codecs\flac.exe (User Defined Encoder)
320 kBit/s
Additional command line options : -8 -V -T "artist=%a" -T "title=%t" -T "album=%g" -T "date=%y" -T "tracknumber=%n" -T "genre=%m" -T "comment=EAC Flac 1.1.2 -8" %s

Other options :
Fill up missing offset samples with silence : Yes
Delete leading and trailing silent blocks : No
Installed external ASPI interface


Track 1
Filename C:\Documents and Settings\mckenna\01 - Spoken Introduction.wav

Pre-gap length 0:00:02.00

Peak level 38.7 %
Track quality 100.0 %
Test CRC DE3CAEBF
Copy CRC DE3CAEBF
Copy OK

Track 2
Filename C:\Documents and Settings\mckenna\02 - Dream Dancing.wav

Peak level 59.3 %
Track quality 100.0 %
Test CRC 1E7D4F99
Copy CRC 1E7D4F99
Copy OK

Track 3
Filename C:\Documents and Settings\mckenna\03 - Detour Ahead.wav

Peak level 56.5 %
Track quality 100.0 %
Test CRC 441CBF59
Copy CRC 441CBF59
Copy OK

Track 4
Filename C:\Documents and Settings\mckenna\04 - Exactly Like You.wav

Peak level 54.5 %
Track quality 100.0 %
Test CRC 6184A9A1
Copy CRC 6184A9A1
Copy OK

Track 5
Filename C:\Documents and Settings\mckenna\05 - I'm Glad There Is You-I'm Glad I Waited For You.wav

Peak level 55.0 %
Track quality 100.0 %
Test CRC 9F3ADC42
Copy CRC 9F3ADC42
Copy OK

Track 6
Filename C:\Documents and Settings\mckenna\06 - Knowledge Medley - Part 1.wav

Peak level 63.0 %
Track quality 100.0 %
Test CRC B4F93A6E
Copy CRC B4F93A6E
Copy OK

Track 7
Filename C:\Documents and Settings\mckenna\07 - Knowledge Medley - Part 2.wav

Peak level 56.9 %
Track quality 100.0 %
Test CRC 19984B16
Copy CRC 19984B16
Copy OK

Track 8
Filename C:\Documents and Settings\mckenna\08 - I Don't Know Why - You'll Never Know.wav

Peak level 59.9 %
Track quality 100.0 %
Test CRC A9D85FCF
Copy CRC A9D85FCF
Copy OK

Track 9
Filename C:\Documents and Settings\mckenna\09 - I Never Knew.wav

Peak level 64.4 %
Track quality 100.0 %
Test CRC 09AC7EEE
Copy CRC 09AC7EEE
Copy OK

Track 10
Filename C:\Documents and Settings\mckenna\10 - 'C' Jam Blues.wav

Peak level 67.5 %
Track quality 100.0 %
Test CRC D4B48658
Copy CRC D4B48658
Copy OK

Track 11
Filename C:\Documents and Settings\mckenna\11 - Limehouse Blues.wav

Peak level 58.6 %
Track quality 100.0 %
Test CRC A603A9EA
Copy CRC A603A9EA
Copy OK

No errors occured


End of status report


Dave McKenna - Live At Maybeck (1990) {Concord Jazz CCD-4410}

Dave McKenna - Live At Maybeck (1990) {Concord Jazz CCD-4410}



===