Subcategories

David Virelles - Gnosis (2017) {ECM 2526} (Complete Artwork - Slipcase with 20 pages)

Posted By: ruskaval
David Virelles - Gnosis (2017) {ECM 2526} (Complete Artwork - Slipcase with 20 pages)

David Virelles - Gnosis (2017) {ECM 2526} (Complete Artwork - Slipcase with 20 pages)
EAC rip (secure mode) | FLAC (tracks)+CUE+LOG -> 200 Mb | MP3 @320 -> 125 Mb
Full Artwork @ 600 dpi (jpg) -> 144 Mb | 5% repair rar
© 2017 ECM Records | ECM 2526 / 576 5115
Jazz / Contemporary Jazz / Modern Creative / Cuban / Piano

The 34-year-old Manhattan-resident Cuban pianist David Virelles can sound like a 21st-century jazz heir to Herbie Hancock in other people’s bands (Tomasz Stanko’s, Chris Potter’s) – but his own preferences are for avant-grooving, as on last year’s Antenna and the broadly sourced contemporary classical music that informs a good deal of Gnosis. This session, with strings, flute, vocals and four percussionists led by the Cuban drums guru Roman Diaz, sees Virelles deepening his exploration of the fission points between ancient African Cuban traditions and the music of his own era.

The opening is an impressionistic drift across preoccupied percussion tappings, the glowing resonances of the marimbula (which sounds like a plucked marimba), and Thomas Morgan’s pizzicato bass. Breezy dance rhythms then guide left-hand piano vamps driving right-hand free improv. Dark, street-throbbing grooves are challenged by imperiously talkative Diaz vocals, while contemporary classical flute and clarinet meditations release storming freebop piano breaks. It’s a big, inclusive musical story, told in revealingly patient and personal narratives.
David Virelles - Gnosis (2017) {ECM 2526} (Complete Artwork - Slipcase with 20 pages)


ecmrecords.com INFO
allmusic.com INFO


FEATURED ARTIST:

David Virelles Piano, Marímbula, Background Vocals
Román Díaz Lead Vocals and Percussion (Bonkó Enchemiyá, Ekón, Nkomos, Erikundi, Itones, Nkaniká, Marímbula, Claves, Mayohuacán, Pilón, Carapacho de Jicotea, Coconut Shells)
Allison Loggins-Hull Piccolo, Flute
Rane Moore Clarinet, Bass Clarinet
Adam Cruz Percussion (Steel Pan, Claves)
Alex Lipowski Percussion (Orchestral Bass Drum, Temple Blocks, Bongos, Gong)
Matthew Gold Percussion (Marimba, Glockenspiel)
Mauricio Herrera Percussion (Ekón, Nkomos, Erikundi, Claves), Background Vocals
Thomas Morgan Double Bass
Yunior Lopez Viola
Christine Chen Violoncello
Samuel DeCaprio Violoncello
Melvis Santa Background Vocals

David Virelles - Gnosis (2017) {ECM 2526} (Complete Artwork - Slipcase with 20 pages)


Tracklisting:

01. DEL TABACO Y EL AZÚCAR 04:01
02. FITITÍ ÑONGO 02:24
03. LENGUA I 03:27
04. ERUME KONDÓ 02:03
05. BENKOMO 05:25
06. TIERRA 06:16
07. DE IDA Y VUELTA I 03:42
08. LENGUA II 01:35
09. DE IDA Y VUELTA II 02:32
10. NUNÁ 02:40
11. EPÍLOGO 01:55
12. DOS 04:04
13. CARACOLA 01:28
14. VISIONES SONORAS 01:19
15. DE PORTAL 02:35
16. DE TRES 00:41
17. DE CUANDO ERA CHIQUITA… 02:50
18. DE CORAL 03:16

All songs by David Virelles

Exact Audio Copy V1.3 from 2. September 2016

EAC extraction logfile from 6. January 2018, 21:21

David Virelles / Gnosis [ECM 2526]

Used drive : ASUS DRW-24F1ST a Adapter: 1 ID: 0

Read mode : Secure
Utilize accurate stream : Yes
Defeat audio cache : Yes
Make use of C2 pointers : No

Read offset correction : 6
Overread into Lead-In and Lead-Out : No
Fill up missing offset samples with silence : Yes
Delete leading and trailing silent blocks : No
Null samples used in CRC calculations : Yes
Used interface : Native Win32 interface for Win NT & 2000
Gap handling : Appended to previous track

Used output format : User Defined Encoder
Selected bitrate : 128 kBit/s
Quality : High
Add ID3 tag : No
Command line compressor : C:\Program Files (x86)\Exact Audio Copy\FLAC\FLAC.EXE
Additional command line options : -8 -V -T "ARTIST=%artist%" -T "TITLE=%title%" -T "ALBUM=%albumtitle%" -T "DATE=%year%" -T "TRACKNUMBER=%tracknr%" -T "TOTALTRACKS=%numtracks%" -T "GENRE=%genre%" -T "ALBUMARTIST=%albumartist%" -T "ALBUM ARTIST=%albumartist%" -T "COMMENT=EAC Secure Mode, Test & Copy, AccurateRip, FLAC -8" %source%


TOC of the extracted CD

Track | Start | Length | Start sector | End sector
––––––––––––––––––––––––––––-
1 | 0:00.00 | 4:01.15 | 0 | 18089
2 | 4:01.15 | 2:24.37 | 18090 | 28926
3 | 6:25.52 | 3:27.27 | 28927 | 44478
4 | 9:53.04 | 2:03.22 | 44479 | 53725
5 | 11:56.26 | 5:25.27 | 53726 | 78127
6 | 17:21.53 | 6:16.32 | 78128 | 106359
7 | 23:38.10 | 3:42.38 | 106360 | 123047
8 | 27:20.48 | 1:35.20 | 123048 | 130192
9 | 28:55.68 | 2:32.53 | 130193 | 141645
10 | 31:28.46 | 2:40.14 | 141646 | 153659
11 | 34:08.60 | 1:55.57 | 153660 | 162341
12 | 36:04.42 | 4:04.16 | 162342 | 180657
13 | 40:08.58 | 1:28.36 | 180658 | 187293
14 | 41:37.19 | 1:19.19 | 187294 | 193237
15 | 42:56.38 | 2:35.55 | 193238 | 204917
16 | 45:32.18 | 0:41.35 | 204918 | 208027
17 | 46:13.53 | 2:50.18 | 208028 | 220795
18 | 49:03.71 | 3:16.12 | 220796 | 235507


Track 1

Filename L:\EAC\01 - Del Tabaco Y El Azucar.wav

Pre-gap length 0:00:02.00

Peak level 76.3 %
Extraction speed 4.2 X
Track quality 100.0 %
Test CRC C37877B6
Copy CRC C37877B6
Accurately ripped (confidence 2) [0471D633] (AR v2)
Copy OK

Track 2

Filename L:\EAC\02 - Fititi Nongo.wav

Peak level 76.5 %
Extraction speed 4.2 X
Track quality 100.0 %
Test CRC 1FC87A03
Copy CRC 1FC87A03
Accurately ripped (confidence 2) [19BEEE24] (AR v2)
Copy OK

Track 3

Filename L:\EAC\03 - Lengua I.wav

Peak level 46.0 %
Extraction speed 4.7 X
Track quality 100.0 %
Test CRC 6744D20E
Copy CRC 6744D20E
Accurately ripped (confidence 2) [EA3D8914] (AR v2)
Copy OK

Track 4

Filename L:\EAC\04 - Erume Kondo.wav

Peak level 85.4 %
Extraction speed 4.5 X
Track quality 100.0 %
Test CRC CAC602FD
Copy CRC CAC602FD
Accurately ripped (confidence 2) [372FA70E] (AR v2)
Copy OK

Track 5

Filename L:\EAC\05 - Benkomo.wav

Peak level 61.9 %
Extraction speed 5.3 X
Track quality 99.9 %
Test CRC 9CFE1566
Copy CRC 9CFE1566
Accurately ripped (confidence 2) [593F4F0A] (AR v2)
Copy OK

Track 6

Filename L:\EAC\06 - Tierra.wav

Peak level 94.5 %
Extraction speed 6.2 X
Track quality 100.0 %
Test CRC 1E176F86
Copy CRC 1E176F86
Accurately ripped (confidence 2) [FCFBAF87] (AR v2)
Copy OK

Track 7

Filename L:\EAC\07 - De Ida Y Vuelta I.wav

Peak level 76.4 %
Extraction speed 6.2 X
Track quality 100.0 %
Test CRC C5570872
Copy CRC C5570872
Accurately ripped (confidence 2) [89B8EAC6] (AR v2)
Copy OK

Track 8

Filename L:\EAC\08 - Lengua II.wav

Peak level 43.3 %
Extraction speed 4.2 X
Track quality 99.8 %
Test CRC 50E50103
Copy CRC 50E50103
Accurately ripped (confidence 2) [B9CDD450] (AR v2)
Copy OK

Track 9

Filename L:\EAC\09 - De Ida Y Vuelta II.wav

Peak level 43.6 %
Extraction speed 5.1 X
Track quality 99.9 %
Test CRC 994AA1C5
Copy CRC 994AA1C5
Accurately ripped (confidence 2) [CB983813] (AR v2)
Copy OK

Track 10

Filename L:\EAC\10 - Nuna.wav

Peak level 63.5 %
Extraction speed 6.3 X
Track quality 100.0 %
Test CRC FF175EB6
Copy CRC FF175EB6
Accurately ripped (confidence 2) [9C3F5734] (AR v2)
Copy OK

Track 11

Filename L:\EAC\11 - Epilogo.wav

Peak level 72.8 %
Extraction speed 5.9 X
Track quality 100.0 %
Test CRC C11F422D
Copy CRC C11F422D
Accurately ripped (confidence 2) [56CA87CE] (AR v2)
Copy OK

Track 12

Filename L:\EAC\12 - Dos.wav

Peak level 50.5 %
Extraction speed 7.0 X
Track quality 100.0 %
Test CRC 4FA2E80A
Copy CRC 4FA2E80A
Accurately ripped (confidence 2) [369B5202] (AR v2)
Copy OK

Track 13

Filename L:\EAC\13 - Caracola.wav

Peak level 28.2 %
Extraction speed 5.7 X
Track quality 100.0 %
Test CRC 3A26C102
Copy CRC 3A26C102
Accurately ripped (confidence 2) [79B617BA] (AR v2)
Copy OK

Track 14

Filename L:\EAC\14 - Visiones Sonoras.wav

Peak level 66.6 %
Extraction speed 5.6 X
Track quality 100.0 %
Test CRC 3E7FCE65
Copy CRC 3E7FCE65
Accurately ripped (confidence 2) [C345C8EB] (AR v2)
Copy OK

Track 15

Filename L:\EAC\15 - Del Portal.wav

Peak level 61.3 %
Extraction speed 6.8 X
Track quality 100.0 %
Test CRC 6330C3EF
Copy CRC 6330C3EF
Accurately ripped (confidence 2) [F45E649D] (AR v2)
Copy OK

Track 16

Filename L:\EAC\16 - Tres.wav

Peak level 41.6 %
Extraction speed 3.0 X
Track quality 99.7 %
Test CRC 9CC70B9D
Copy CRC 9CC70B9D
Accurately ripped (confidence 2) [11406789] (AR v2)
Copy OK

Track 17

Filename L:\EAC\17 - De Cuando Era Chiquita.wav

Peak level 50.5 %
Extraction speed 7.1 X
Track quality 100.0 %
Test CRC 685D3FB4
Copy CRC 685D3FB4
Accurately ripped (confidence 2) [CCE23F15] (AR v2)
Copy OK

Track 18

Filename L:\EAC\18 - De Coral.wav

Peak level 52.6 %
Extraction speed 7.4 X
Track quality 100.0 %
Test CRC 23D53599
Copy CRC 23D53599
Accurately ripped (confidence 2) [C1C3F7CF] (AR v2)
Copy OK


All tracks accurately ripped

No errors occurred

End of status report

–– CUETools DB Plugin V2.1.6

[CTDB TOCID: tOwZDqkFT6qy9sky9xOdeKNab4w-] found
Submit result: already submitted
Track | CTDB Status
1 | (10/10) Accurately ripped
2 | (10/10) Accurately ripped
3 | (10/10) Accurately ripped
4 | (10/10) Accurately ripped
5 | (10/10) Accurately ripped
6 | (10/10) Accurately ripped
7 | (10/10) Accurately ripped
8 | (10/10) Accurately ripped
9 | (10/10) Accurately ripped
10 | (10/10) Accurately ripped
11 | (10/10) Accurately ripped
12 | (10/10) Accurately ripped
13 | (10/10) Accurately ripped
14 | (10/10) Accurately ripped
15 | (10/10) Accurately ripped
16 | (10/10) Accurately ripped
17 | (10/10) Accurately ripped
18 | (10/10) Accurately ripped


==== Log checksum 284E50C02E10BBCF8B87297682999A9A93EAA9519D5EC04F2DB1C5D8D8522BE5 ====


David Virelles - Gnosis (2017) {ECM 2526} (Complete Artwork - Slipcase with 20 pages)

David Virelles - Gnosis (2017) {ECM 2526} (Complete Artwork - Slipcase with 20 pages)



===