Subcategories

Antonello Venditti - Buona domenica (1979)

Posted By: daviduzzo
Antonello Venditti - Buona domenica (1979)

Antonello Venditti - Buona domenica (1979)
Pop | EAC | FLAC , CUE, LOG | Covers 600 dpi | 330 MB

Antonello Venditti è nato a Roma l'8 marzo 1949.
Appena adolescente, compone due delle sue canzoni più famose, Roma capoccia e Sora Rosa. L'occasione di farle ascoltare in pubblico arriva alla fine degli anni sessanta con la partecipazione alle attività del celebre locale romano Folkstudio, assai importante per la formazione dei giovani autori e la crescita musicale della città (vi suonò anche Bob Dylan). In questo locale conosce molti altri cantautori e musicisti tra cui Francesco De Gregori e Rino Gaetano.
È proprio con De Gregori e la collaborazione di Giorgio Lo Cascio ed Ernesto Bassignano che Antonello comincia ad esibirsi al Folkstudio in uno spazio del programma denominato "I giovani del folk".

EAC Log
V0.99 prebeta 5 from 4. May 2009
Estrazione file di log EAC da 8. Aprile 2010, 8:20
Antonello Venditti / Buona domenica
Unità predefinita: TSSTcorpCDDVDW SH-S223F Adapter: 2 ID: 1
Modalità di lettura: :
: Sì
: No
: No
Correzione offset combinata lettura/scrittura: : 0
Sovrascrivi anche nel Lead-In e Lead-Out : No
Riempi sample offset mancanti con silenzio : Sì
Rimuovi blocchi di silezio ad inizio e fine : No
: No
: Interfaccia nativa Win32 per Windows NT & 2000
Formato di destinazione scelto: : Usa Encoder definito da utente
: 768 kBit/s
: Alta
: No
: C:\Program Files\Exact Audio Copy\FLAC\FLAC.EXE
Opzioni aggiuntive da riga di comando: : -6 -V -T "ARTIST=%a" -T "TITLE=%t" -T "ALBUM=%g" -T "DATE=%y" -T "TRACKNUMBER=%n" -T

"GENRE=%m" -T "COMMENT=%e" %s -o %d
| | | |
––––––––––––––––––––––
1 | 0:00.33 | 5:37.62 | 33 | 25369
2 | 5:38.20 | 4:37.03 | 25370 | 46147
3 | 10:15.23 | 4:39.10 | 46148 | 67082
4 | 14:54.33 | 3:59.00 | 67083 | 85007
5 | 18:53.33 | 7:49.00 | 85008 | 120182
6 | 26:42.33 | 3:19.37 | 120183 | 135144
7 | 30:01.70 | 3:51.00 | 135145 | 152469
8 | 33:52.70 | 3:13.63 | 152470 | 167007
Stato intervallo ed errori
Intervallo selezionato
Nome file C:\User\Antonello Venditti - 1979 - Buona domenica [Flac]\Antonello Venditti - Buona domenica.wav
Livello di picco 91.2 %
Qualità intervallo 100.0 %
Copia CRC D6AAF900
Copia corretta
Non sono stati riscontrati errori
Fine del resoconto di stato[/spoiler]

SFV. Generated by QuickSFV v2.36 on 2010-04-09 at 19:01:23
; http://www.QuickSFV.org
;
; 102400000 16:47.02 2010-04-09 av-bd-f-r.part1.rar
; 102400000 16:47.23 2010-04-09 av-bd-f-r.part2.rar
; 33705822 16:47.30 2010-04-09 av-bd-f-r.part3.rar
av-bd-f-r.part1.rar F99D6A8A
av-bd-f-r.part2.rar 89A42BC8
av-bd-f-r.part3.rar ED496BBA



Tracce
1. Buona domenica - 5:39
2. Stai con me - 4:37
3. Robin - 4:38
4. Scusa, devo andare via (un'altra canzone) - 3:59
5. Modena - 7:49
6. Mezzanotte - 3:19
7. Donna in bottiglia - 3:50
8. Kriminal - 3:14


–- Download –-

Hotfile
Links
Links
Links

Uploading
Links
Links
Links

Rapidshare
Links
Links
Links

Password: crazy

NO MIRROR PLEASE