Subcategories

David Bowie - David Live (1974) + Stage (1978) [2x2CD] {2005 EMI Remaster} [combined repost]

Posted By: ruskaval
David Bowie - David Live (1974) + Stage (1978) [2x2CD] {2005 EMI Remaster} [combined repost]

David Bowie - David Live (1974) + Stage (1978) [2x2CD] {2005 EMI Remaster}
EAC rip (secure mode) | FLAC (tracks)+CUE+LOG -> 1.25 Gb | MP3 @320 -> 450 Mb
Full Artwork @ 300 dpi (jpg) -> 71 Mb | 5% repair rar
© 2005 EMI / Jones/Tintoretto | 7243 874307 2 3 / 094631125126
Rock / Pop / Experimental Rock

When David Bowie recorded what became DAVID LIVE at Philadelphia's Tower Theatre in July 1974, he had fully made the leap from Ziggy Stardust and landed feet-first into the shoes of the Thin White Duke. Despite announcing his retirement from live performance the year before, Bowie seemed no worse for wear fronting a ten-piece directed by future LETHAL WEAPON composer Michael Kamen and featuring new guitarist Earl Slick and horn player David Sanborn. This 2-CD set finds the chameleonic performer mixing in Ziggy-era classics such as "Rock 'N' Roll Suicide" with material from DIAMOND DOGS ("Rebel Rebel," "1984"), ALADDIN SANE ("Cracked Actor") and HUNKY DORY ("Changes"). The fullness of the horn section and the style of his back-up band give this set a soulful tilt powered by Slick's ballsy playing. This, along with a cover of the Stax nugget "Knock On Wood," pointed at Bowie's immersion in a Philly soul direction that emerged full-fledged on YOUNG AMERICANS.

David Bowie - David Live (1974) + Stage (1978) [2x2CD] {2005 EMI Remaster} [combined repost]

David Bowie - David Live [2CD] (1974) {2005 EMI Remaster}
EAC rip (secure mode) | FLAC (tracks)+CUE+LOG -> 678 Mb | MP3 @320 -> 245 Mb
Full Artwork @ 300 dpi (jpg) -> 20 Mb | 5% repair rar
© 2005 EMI / Jones/Tintoretto | 7243 874307 2 3

During the supporting tour for 1974's Diamond Dogs, David Bowie shifted away from the arch camp of glam rock and turned toward a highly stylized variation of Philly soul – a transition captured on the 1974 double live album David Live. It's an interesting idea for a record, and certainly one that's fascinating as a historical footnote, but David Live winds up as one of the true failures in Bowie's catalog, one of the few records in his catalog that's a genuine chore to sit through from beginning to end. Part of the problem is inherent to any live Bowie LP: his concerts are equal parts visual spectacle and musical concert, so having just the aural portion of the show misses a crucial part of the story. Another part of the problem is that the soul reworkings of Ziggy Stardust, Aladdin Sane, and Diamond Dogs material is intriguing conceptually, but the execution, at least on this record, is awkward and ham-fisted, nowhere near as sleek and sexy as the subsequent Young Americans and, especially, Station to Station albums. And that points out the real problem with David Live – the performances are stilted, lacking energy, and often degenerating into bland groove-oriented vamps. It doesn't help that the recording is lousy and that no amount of aural tweaking – whether on Rykodisc's 1991 CD reissue or Virgin's expanded 2005 reissue, which is heavily remixed by its original producer Tony Visconti – can change the fact that this is a flat, colorless experience. [The 2005 edition contains the bonus tracks that were on the Ryko edition, but they're inserted into the running order of the album instead of being tacked onto the end, which is where they were on the 1991 edition.]

Personnel: David Bowie (vocals); Earl Slick (guitar); David Sanborn (flute, alto saxophone); Richard Grando (flute, baritone saxophone); Michael Kamen (oboe, electric piano, Moog synthesizer); Mike Garson (piano, Mellotron); Herbie Flowers (bass instrument); Tony Newman (drums); Pablo Rosario (percussion); Warren Peace (background vocals).

tracklist:
CD1

01. 1984 – 3:20
02. Rebel Rebel – 2:40
03. Moonage Daydream – 5:10
04. Sweet Thing/Candidate/Sweet Thing (Reprise) – 8:48
05. Changes – 3:34
06. Suffragette City – 3:45
07. Aladdin Sane – 4:57
08. All the Young Dudes – 4:18
09. Cracked Actor – 3:29
10. Rock 'n' Roll with Me – 4:18

CD2
01. Watch That Man – 4:55
02. Knock on Wood – 3:08
03. Here Today, Gone Tomorrow – 3:32
04. Space Oddity – 6:27
05. Diamond Dogs – 6:32
06. Panic in Detroit – 5:41
07. Big Brother – 4:08
08. Time – 5:19
09. The Width of a Circle – 8:12
11. The Jean Genie – 5:13
12. Rock 'n' Roll Suicide – 4:30

Exact Audio Copy V0.99 prebeta 5 from 4. May 2009

EAC extraction logfile from 10. November 2009, 10:34

David Bowie / David Live (CD1) {2005 EMI Remaster}

Used drive : TSSTcorpCD/DVDW TS-H552L Adapter: 3 ID: 0

Read mode : Secure
Utilize accurate stream : Yes
Defeat audio cache : Yes
Make use of C2 pointers : No

Read offset correction : 6
Overread into Lead-In and Lead-Out : No
Fill up missing offset samples with silence : Yes
Delete leading and trailing silent blocks : No
Null samples used in CRC calculations : Yes
Used interface : Native Win32 interface for Win NT & 2000
Gap handling : Appended to previous track

Used output format : User Defined Encoder
Selected bitrate : 1024 kBit/s
Quality : High
Add ID3 tag : No
Command line compressor : C:\Program Files\FLAC\flac.exe
Additional command line options : -6 -V -T "ARTIST=%a" -T "TITLE=%t" -T "ALBUM=%g" -T "DATE=%y" -T "TRACKNUMBER=%n" -T "GENRE=%m" -T "COMMENT=EAC FLAC -6" %s


TOC of the extracted CD

Track | Start | Length | Start sector | End sector
––––––––––––––––––––––––––––-
1 | 0:00.00 | 3:23.10 | 0 | 15234
2 | 3:23.10 | 2:42.22 | 15235 | 27406
3 | 6:05.32 | 5:08.00 | 27407 | 50506
4 | 11:13.32 | 8:35.03 | 50507 | 89134
5 | 19:48.35 | 3:35.52 | 89135 | 105311
6 | 23:24.12 | 3:45.43 | 105312 | 122229
7 | 27:09.55 | 4:59.15 | 122230 | 144669
8 | 32:08.70 | 4:15.52 | 144670 | 163846
9 | 36:24.47 | 3:25.23 | 163847 | 179244
10 | 39:49.70 | 4:18.45 | 179245 | 198639
11 | 44:08.40 | 5:04.15 | 198640 | 221454


Track 1

Filename C:\David Bowie - David Live (1974) [2CD] {2005 EMI Remaster}\CD1\01 - 1984.wav

Pre-gap length 0:00:02.00

Peak level 87.9 %
Track quality 100.0 %
Test CRC 6A8E464C
Copy CRC 6A8E464C
Accurately ripped (confidence 23) [C16F2423]
Copy OK

Track 2

Filename C:\David Bowie - David Live (1974) [2CD] {2005 EMI Remaster}\CD1\02 - Rebel Rebel.wav

Peak level 91.5 %
Track quality 100.0 %
Test CRC 87B02368
Copy CRC 87B02368
Accurately ripped (confidence 23) [ADED419A]
Copy OK

Track 3

Filename C:\David Bowie - David Live (1974) [2CD] {2005 EMI Remaster}\CD1\03 - Moonage Daydream.wav

Peak level 75.6 %
Track quality 100.0 %
Test CRC BD7AB1C5
Copy CRC BD7AB1C5
Accurately ripped (confidence 23) [4FF96FE7]
Copy OK

Track 4

Filename C:\David Bowie - David Live (1974) [2CD] {2005 EMI Remaster}\CD1\04 - Sweet Thing,Candidate,Sweet Thing (Reprise).wav

Peak level 88.1 %
Track quality 99.9 %
Test CRC 8443C993
Copy CRC 8443C993
Accurately ripped (confidence 23) [9C69F688]
Copy OK

Track 5

Filename C:\David Bowie - David Live (1974) [2CD] {2005 EMI Remaster}\CD1\05 - Changes.wav

Peak level 80.4 %
Track quality 100.0 %
Test CRC 00436CCA
Copy CRC 00436CCA
Accurately ripped (confidence 23) [1C6868C4]
Copy OK

Track 6

Filename C:\David Bowie - David Live (1974) [2CD] {2005 EMI Remaster}\CD1\06 - Suffragette City.wav

Peak level 76.6 %
Track quality 100.0 %
Test CRC 111A44CD
Copy CRC 111A44CD
Accurately ripped (confidence 23) [4DC84375]
Copy OK

Track 7

Filename C:\David Bowie - David Live (1974) [2CD] {2005 EMI Remaster}\CD1\07 - Aladdin Sane.wav

Peak level 82.4 %
Track quality 99.9 %
Test CRC 7FE476F5
Copy CRC 7FE476F5
Accurately ripped (confidence 23) [A3C4A6D9]
Copy OK

Track 8

Filename C:\David Bowie - David Live (1974) [2CD] {2005 EMI Remaster}\CD1\08 - All The Young Dudes.wav

Peak level 80.5 %
Track quality 99.9 %
Test CRC E7895369
Copy CRC E7895369
Accurately ripped (confidence 23) [93A8C1D9]
Copy OK

Track 9

Filename C:\David Bowie - David Live (1974) [2CD] {2005 EMI Remaster}\CD1\09 - Cracked Actor.wav

Peak level 81.4 %
Track quality 100.0 %
Test CRC 1DBF2CBF
Copy CRC 1DBF2CBF
Accurately ripped (confidence 23) [E0B58E87]
Copy OK

Track 10

Filename C:\David Bowie - David Live (1974) [2CD] {2005 EMI Remaster}\CD1\10 - Rock And Roll With Me.wav

Peak level 89.8 %
Track quality 100.0 %
Test CRC 530CF82C
Copy CRC 530CF82C
Accurately ripped (confidence 24) [9AEB4416]
Copy OK

Track 11

Filename C:\David Bowie - David Live (1974) [2CD] {2005 EMI Remaster}\CD1\11 - Watch That Man.wav

Peak level 90.6 %
Track quality 99.9 %
Test CRC BD468C89
Copy CRC BD468C89
Accurately ripped (confidence 24) [F9E26545]
Copy OK


All tracks accurately ripped

No errors occurred

End of status report

Exact Audio Copy V0.99 prebeta 5 from 4. May 2009

EAC extraction logfile from 10. November 2009, 10:48

David Bowie / David Live (CD2) {2005 EMI Remaster}

Used drive : TSSTcorpCD/DVDW TS-H552L Adapter: 3 ID: 0

Read mode : Secure
Utilize accurate stream : Yes
Defeat audio cache : Yes
Make use of C2 pointers : No

Read offset correction : 6
Overread into Lead-In and Lead-Out : No
Fill up missing offset samples with silence : Yes
Delete leading and trailing silent blocks : No
Null samples used in CRC calculations : Yes
Used interface : Native Win32 interface for Win NT & 2000
Gap handling : Appended to previous track

Used output format : User Defined Encoder
Selected bitrate : 1024 kBit/s
Quality : High
Add ID3 tag : No
Command line compressor : C:\Program Files\FLAC\flac.exe
Additional command line options : -6 -V -T "ARTIST=%a" -T "TITLE=%t" -T "ALBUM=%g" -T "DATE=%y" -T "TRACKNUMBER=%n" -T "GENRE=%m" -T "COMMENT=EAC FLAC -6" %s


TOC of the extracted CD

Track | Start | Length | Start sector | End sector
––––––––––––––––––––––––––––-
1 | 0:00.00 | 3:29.20 | 0 | 15694
2 | 3:29.20 | 3:40.67 | 15695 | 32261
3 | 7:10.12 | 6:27.38 | 32262 | 61324
4 | 13:37.50 | 6:25.37 | 61325 | 90236
5 | 20:03.12 | 5:41.03 | 90237 | 115814
6 | 25:44.15 | 4:11.12 | 115815 | 134651
7 | 29:55.27 | 5:22.33 | 134652 | 158834
8 | 35:17.60 | 8:11.65 | 158835 | 195724
9 | 43:29.50 | 5:19.07 | 195725 | 219656
10 | 48:48.57 | 4:47.68 | 219657 | 241249


Track 1

Filename C:\David Bowie - David Live (1974) [2CD] {2005 EMI Remaster}\CD2\01 - Knock On Wood.wav

Pre-gap length 0:00:02.00

Peak level 90.8 %
Track quality 100.0 %
Test CRC 9E451DE2
Copy CRC 9E451DE2
Accurately ripped (confidence 24) [097898C3]
Copy OK

Track 2

Filename C:\David Bowie - David Live (1974) [2CD] {2005 EMI Remaster}\CD2\02 - Here Today, Gone Tomorrow.wav

Peak level 91.6 %
Track quality 100.0 %
Test CRC FFA333A3
Copy CRC FFA333A3
Accurately ripped (confidence 24) [3767A8BB]
Copy OK

Track 3

Filename C:\David Bowie - David Live (1974) [2CD] {2005 EMI Remaster}\CD2\03 - Space Oddity.wav

Peak level 72.6 %
Track quality 99.9 %
Test CRC CD53215C
Copy CRC CD53215C
Accurately ripped (confidence 24) [9DBC7B2D]
Copy OK

Track 4

Filename C:\David Bowie - David Live (1974) [2CD] {2005 EMI Remaster}\CD2\04 - Diamond Dogs.wav

Peak level 86.9 %
Track quality 99.9 %
Test CRC 59688E2C
Copy CRC 59688E2C
Accurately ripped (confidence 24) [C44561B4]
Copy OK

Track 5

Filename C:\David Bowie - David Live (1974) [2CD] {2005 EMI Remaster}\CD2\05 - Panic In Detroit.wav

Peak level 80.3 %
Track quality 99.9 %
Test CRC BC526651
Copy CRC BC526651
Accurately ripped (confidence 24) [4A385638]
Copy OK

Track 6

Filename C:\David Bowie - David Live (1974) [2CD] {2005 EMI Remaster}\CD2\06 - Big Brother.wav

Peak level 83.1 %
Track quality 100.0 %
Test CRC 102B9345
Copy CRC 102B9345
Accurately ripped (confidence 24) [C235F56D]
Copy OK

Track 7

Filename C:\David Bowie - David Live (1974) [2CD] {2005 EMI Remaster}\CD2\07 - Time.wav

Peak level 81.6 %
Track quality 99.9 %
Test CRC 4B02EEE1
Copy CRC 4B02EEE1
Accurately ripped (confidence 24) [1B2CDCA6]
Copy OK

Track 8

Filename C:\David Bowie - David Live (1974) [2CD] {2005 EMI Remaster}\CD2\08 - The Width Of A Circle.wav

Peak level 89.8 %
Track quality 100.0 %
Test CRC 3F9E12FA
Copy CRC 3F9E12FA
Accurately ripped (confidence 24) [D0A608B6]
Copy OK

Track 9

Filename C:\David Bowie - David Live (1974) [2CD] {2005 EMI Remaster}\CD2\09 - The Jean Genie.wav

Peak level 95.7 %
Track quality 99.9 %
Test CRC 13DF9C8B
Copy CRC 13DF9C8B
Accurately ripped (confidence 24) [02BC3A78]
Copy OK

Track 10

Filename C:\David Bowie - David Live (1974) [2CD] {2005 EMI Remaster}\CD2\10 - Rock And Roll Suicide.wav

Peak level 92.6 %
Track quality 99.9 %
Test CRC 6EA5A890
Copy CRC 6EA5A890
Accurately ripped (confidence 23) [D83FC2C3]
Copy OK


All tracks accurately ripped

No errors occurred

End of status report


David Bowie - David Live (1974) + Stage (1978) [2x2CD] {2005 EMI Remaster} [combined repost]

David Bowie - David Live (1974) + Stage (1978) [2x2CD] {2005 EMI Remaster} [combined repost]



–––––––––––––––––-
David Bowie - David Live (1974) + Stage (1978) [2x2CD] {2005 EMI Remaster} [combined repost]

David Bowie - Stage (1978) [2CD] {2005 EMI Remaster}
EAC rip (secure mode) | FLAC (tracks)+CUE+LOG -> 612 Mb | MP3 @320 -> 205 Mb
Full Artwork @ 300 dpi (png) -> 51 Mb | 5% repair rar
© 2005 EMI / Jones/Tintoretto | 094631125126

Emerging from his self-imposed exile in Berlin, David Bowie assembled a new band and took to the road to promote his Berlin-recorded albums, LOW and HEROES. STAGE chronicles that 1977 tour, and captures Bowie at one of the most creative periods of his career. Though STAGE was criticized for having somewhat lackluster sound when it was originally released, the remastered CD versions present a noticeable improvement over the original album.

STAGE breaks Bowie's concert into two parts. The first CD features urgent versions of some of Bowie's best-known songs, including "Ziggy Stardust," "Fame," and "Hang On to Yourself." The second CD is devoted exclusively to the songs from LOW and HEROES. Though songs like the anthemic "Heroes" are well-suited to the live format, others, like the ominous instrumental "Warsawza" and the futuristic "Speed of Life" are not your typical concert fare. Still, Bowie performs gripping versions of these challenging tunes, and guitarist Adrian Belew is especially good on this material. While STAGE may not be the definitive Bowie live album, it offers a fascinating look at the artist as he stretches the boundaries of sound and stage for what was perhaps the last time in his career. (Note: The 2005 reissue features a different track order and two bonus tracks.)

tracklist:
CD1

01. Warszawa
02. Heroes
03. What in the World
04. Be My Wife - (previously unreleased)
05. Blackout
06. Sense of Doubt
07. Speed of Life
08. Breaking Glass
09. Beauty and the Beast
10. Fame

CD2
01. Five Years
02. Soul Love
03. Star
04. Hang on to Yourself
05. Ziggy Stardust
06. Art Decade
07. Alabama Song
08. Station to Station
09. Stay - (previously unreleased)
10. TVC 15

Exact Audio Copy V0.99 prebeta 4 from 23. January 2008

EAC extraction logfile from 8. February 2009, 15:37

David Bowie / Stage [Disc 1]

Used drive : SlimtypeDVD A DS8A2S Adapter: 1 ID: 0

Read mode : Secure
Utilize accurate stream : Yes
Defeat audio cache : Yes
Make use of C2 pointers : No

Read offset correction : 6
Overread into Lead-In and Lead-Out : No
Fill up missing offset samples with silence : Yes
Delete leading and trailing silent blocks : No
Null samples used in CRC calculations : Yes
Used interface : Native Win32 interface for Win NT & 2000
Gap handling : Appended to previous track

Used output format : User Defined Encoder
Selected bitrate : 128 kBit/s
Quality : High
Add ID3 tag : No
Command line compressor : C:\Program Files\FLAC\flac.exe
Additional command line options : -8 -V -T "ARTIST=%a" -T "TITLE=%t" -T "ALBUM=%g" -T "DATE=%y" -T "TRACKNUMBER=%n" -T "GENRE=%m" -T "COMMENT=EAC FLAC -8" %s


TOC of the extracted CD

Track | Start | Length | Start sector | End sector
––––––––––––––––––––––––––––-
1 | 0:00.00 | 6:46.35 | 0 | 30484
2 | 6:46.35 | 6:10.65 | 30485 | 58299
3 | 12:57.25 | 4:16.47 | 58300 | 77546
4 | 17:13.72 | 2:35.45 | 77547 | 89216
5 | 19:49.42 | 3:52.58 | 89217 | 106674
6 | 23:42.25 | 3:07.32 | 106675 | 120731
7 | 26:49.57 | 2:39.53 | 120732 | 132709
8 | 29:29.35 | 3:22.15 | 132710 | 147874
9 | 32:51.50 | 5:00.47 | 147875 | 170421
10 | 37:52.22 | 4:03.00 | 170422 | 188646


Track 1

Filename D:\01 - Warzawa.wav

Pre-gap length 0:00:02.00

Peak level 56.2 %
Track quality 100.0 %
Test CRC E58CD843
Copy CRC E58CD843
Accurately ripped (confidence 12) [6F6F7C52]
Copy OK

Track 2

Filename D:\02 - 'Heroes'.wav

Peak level 89.4 %
Track quality 100.0 %
Test CRC 52CF4ECD
Copy CRC 52CF4ECD
Accurately ripped (confidence 12) [D7B0E26D]
Copy OK

Track 3

Filename D:\03 - What In The World.wav

Peak level 89.4 %
Track quality 100.0 %
Test CRC 9AAD00D2
Copy CRC 9AAD00D2
Accurately ripped (confidence 12) [5B5C4622]
Copy OK

Track 4

Filename D:\04 - Be My Wife.wav

Peak level 73.4 %
Track quality 100.0 %
Test CRC 99A74883
Copy CRC 99A74883
Accurately ripped (confidence 12) [4BCE4BD7]
Copy OK

Track 5

Filename D:\05 - Blackout.wav

Peak level 89.5 %
Track quality 99.9 %
Test CRC 93F1CA02
Copy CRC 93F1CA02
Accurately ripped (confidence 12) [B288261B]
Copy OK

Track 6

Filename D:\06 - Sense Of Doubt.wav

Peak level 83.7 %
Track quality 100.0 %
Test CRC 22A4ABDF
Copy CRC 22A4ABDF
Accurately ripped (confidence 12) [43F64CD0]
Copy OK

Track 7

Filename D:\07 - Speed Of Life.wav

Peak level 90.9 %
Track quality 99.9 %
Test CRC BE39AE0B
Copy CRC BE39AE0B
Accurately ripped (confidence 12) [43671CB4]
Copy OK

Track 8

Filename D:\08 - Breaking Glass.wav

Peak level 92.1 %
Track quality 100.0 %
Test CRC 60F3F97F
Copy CRC 60F3F97F
Accurately ripped (confidence 12) [5E0EE20A]
Copy OK

Track 9

Filename D:\09 - Beauty And The Beast.wav

Peak level 94.1 %
Track quality 100.0 %
Test CRC B42444B4
Copy CRC B42444B4
Accurately ripped (confidence 13) [FC7D3720]
Copy OK

Track 10

Filename D:\10 - Fame.wav

Peak level 92.1 %
Track quality 100.0 %
Test CRC 4A0AC52D
Copy CRC 4A0AC52D
Accurately ripped (confidence 12) [74E03316]
Copy OK


All tracks accurately ripped

No errors occurred

End of status report

Exact Audio Copy V0.99 prebeta 4 from 23. January 2008

EAC extraction logfile from 8. February 2009, 16:18

David Bowie / Stage [Disc 2]

Used drive : SlimtypeDVD A DS8A2S Adapter: 1 ID: 0

Read mode : Secure
Utilize accurate stream : Yes
Defeat audio cache : Yes
Make use of C2 pointers : No

Read offset correction : 6
Overread into Lead-In and Lead-Out : No
Fill up missing offset samples with silence : Yes
Delete leading and trailing silent blocks : No
Null samples used in CRC calculations : Yes
Used interface : Native Win32 interface for Win NT & 2000
Gap handling : Appended to previous track

Used output format : User Defined Encoder
Selected bitrate : 128 kBit/s
Quality : High
Add ID3 tag : No
Command line compressor : C:\Program Files\FLAC\flac.exe
Additional command line options : -8 -V -T "ARTIST=%a" -T "TITLE=%t" -T "ALBUM=%g" -T "DATE=%y" -T "TRACKNUMBER=%n" -T "GENRE=%m" -T "COMMENT=EAC FLAC -8" %s


TOC of the extracted CD

Track | Start | Length | Start sector | End sector
––––––––––––––––––––––––––––-
1 | 0:00.00 | 3:58.32 | 0 | 17881
2 | 3:58.32 | 2:55.28 | 17882 | 31034
3 | 6:53.60 | 2:25.45 | 31035 | 41954
4 | 9:19.30 | 3:21.35 | 41955 | 57064
5 | 12:40.65 | 3:27.42 | 57065 | 72631
6 | 16:08.32 | 3:01.20 | 72632 | 86226
7 | 19:09.52 | 3:55.63 | 86227 | 103914
8 | 23:05.40 | 8:40.60 | 103915 | 142974
9 | 31:46.25 | 7:17.72 | 142975 | 175821
10 | 39:04.22 | 4:32.65 | 175822 | 196286


Track 1

Filename D:\01 - Five Years.wav

Pre-gap length 0:00:02.00

Peak level 90.1 %
Track quality 99.9 %
Test CRC 8ECD9B06
Copy CRC 8ECD9B06
Accurately ripped (confidence 12) [F99FEDBA]
Copy OK

Track 2

Filename D:\02 - Soul Love.wav

Peak level 90.3 %
Track quality 100.0 %
Test CRC 15F2E394
Copy CRC 15F2E394
Accurately ripped (confidence 12) [2878CFE7]
Copy OK

Track 3

Filename D:\03 - Star.wav

Peak level 94.0 %
Track quality 100.0 %
Test CRC 66AB71F6
Copy CRC 66AB71F6
Accurately ripped (confidence 12) [1ABB4027]
Copy OK

Track 4

Filename D:\04 - Hang On To Yourself.wav

Peak level 91.1 %
Track quality 100.0 %
Test CRC 2A1208B7
Copy CRC 2A1208B7
Accurately ripped (confidence 12) [9F6359A3]
Copy OK

Track 5

Filename D:\05 - Ziggy Stardust.wav

Peak level 90.0 %
Track quality 99.9 %
Test CRC AA42A6C7
Copy CRC AA42A6C7
Accurately ripped (confidence 12) [42B70784]
Copy OK

Track 6

Filename D:\06 - Art Decade.wav

Peak level 81.1 %
Track quality 99.9 %
Test CRC 83DB376D
Copy CRC 83DB376D
Accurately ripped (confidence 12) [E2EBCF0F]
Copy OK

Track 7

Filename D:\07 - Alabama Song.wav

Peak level 88.4 %
Track quality 100.0 %
Test CRC 6E3B8890
Copy CRC 6E3B8890
Accurately ripped (confidence 12) [5019EF22]
Copy OK

Track 8

Filename D:\08 - Station To Station.wav

Peak level 91.3 %
Track quality 100.0 %
Test CRC 89992B5A
Copy CRC 89992B5A
Accurately ripped (confidence 12) [33950B8F]
Copy OK

Track 9

Filename D:\09 - Stay.wav

Peak level 96.8 %
Track quality 100.0 %
Test CRC 8131031C
Copy CRC 8131031C
Accurately ripped (confidence 12) [82254411]
Copy OK

Track 10

Filename D:\10 - TVC15.wav

Peak level 91.8 %
Track quality 100.0 %
Test CRC 7343922A
Copy CRC 7343922A
Accurately ripped (confidence 11) [09829476]
Copy OK


All tracks accurately ripped

No errors occurred

End of status report


David Bowie - David Live (1974) + Stage (1978) [2x2CD] {2005 EMI Remaster} [combined repost]

David Bowie - David Live (1974) + Stage (1978) [2x2CD] {2005 EMI Remaster} [combined repost]


All thanks goes to the original releaser!


David Bowie - David Live [2CD] (1974) {2005 EMI Remaster}

UPLOADED Linkz

BITSHARE Linkz



David Bowie - Stage (1978) [2CD] {2005 EMI Remaster}

UPLOADED Linkz

BITSHARE Linkz