Subcategories

Jack DeJohnette, John Patitucci, Danilo Perez - Music We Are (2009)

Posted By: zerumuga
Jack DeJohnette, John Patitucci, Danilo Perez - Music We Are   (2009)

Jack DeJohnette, John Patitucci, Danilo Perez - Music We Are
Jazz | 2009 | MP3 CBR 320Kbps => 155 MB | Time 1:02:28 | Covers
FLAC : tracks+log => 377 MB

One of the most musical drummers in jazz asks two mainstays from Wayne Shorter's masterfully cerebral quartet to join him to incredibly profound results. The least you will enjoy Music We Are is on first listen; each time you hear it, new facets of tone, harmony, melody and inventive ensemble interaction are revealed. Some of the songs, such as DeJohnette's "Tango African" and Perez's "White," feature creative overdubs of electric and acoustic instrumentation (including DeJohnette's mellotron on "Tango"). Others are extraordinary group improvisations, like the alert, attenuated ballad, "Earth Prayer," which has added resonance when you learn the trio recorded much of this album while snowbound at DeJohnette's abode in the Catskills. "Earth Speaks" is stunning in its telepathic spontaneity, which shifts not only in tempo but mood, sheathed in Patitucci's gorgeous arco bass. The straight-ahead, composed pieces are likewise treasure troves of musical engagement. The two movements of DeJohnette's "Seventh D" contain joyous, energetic gamboling best defined by Perez's comment that the session produced "grownup children's stuff" among the trio. Perez's "Cobilla" is warm, funky and full of surprisingly rhythmic accents. And Patitucci's "Michael" is a worthy, if somberly muted, paean to the late saxophonist Michael Brecker. DeJohnette has long been renowned for his trio work with Keith Jarrett and Gary Peacock. This first collaboration with Perez and Patitucci has a similar personality, and would rank near the top of the voluminous DeJohnette-Jarrett-Peacock catalogue by comparison.


Tracks:

*01.- Tango African
*02.- Earth Prayer
*03.- Seventh D, 1st Movement
*04.- Seventh D, 2nd Movement
*05.- Soulful Ballad
*06.- Earth Speaks
*07.- Cobilla
*08.- Panama Viejo
*09.- White
*10.- Ode To MJQ
*11.- Michael



Personnel:

*Jack DeJohnette: drum
*John Patitucci: upright bass, electric bass
*Danilo Perez: piano, keyboard


Exact Audio Copy V0.99 prebeta 4 from 23. January 2008

EAC extraction logfile from 12. May 2009, 12:24

Jack DeJohnette, John Patitucci & Danilo Perez / Music We Are

Used drive : PIONEER DVD-RW DVR-112D Adapter: 0 ID: 0

Read mode : Secure
Utilize accurate stream : Yes
Defeat audio cache : Yes
Make use of C2 pointers : No

Read offset correction : 48
Overread into Lead-In and Lead-Out : No
Fill up missing offset samples with silence : Yes
Delete leading and trailing silent blocks : No
Null samples used in CRC calculations : Yes
Used interface : Installed external ASPI interface
Gap handling : Appended to previous track

Used output format : User Defined Encoder
Selected bitrate : 320 kBit/s
Quality : High
Add ID3 tag : No
Command line compressor : C:\Program Files\FLAC\flac.exe
Additional command line options : -8 -V -T "ARTIST=%a" -T "TITLE=%t" -T "ALBUM=%g" -T "DATE=%y" -T "TRACKNUMBER=%n" -T "TOTALTRACKS=%x" -T "GENRE=%m" -T "ALBUM ARTIST=%v" -T "ALBUMARTIST=%v" -T "COMMENT=EAC V0.99 prebeta 4, Secure Mode, Test & Copy, Accurat


TOC of the extracted CD

Track | Start | Length | Start sector | End sector
––––––––––––––––––––––––––––-
1 | 0:00.00 | 5:31.36 | 0 | 24860
2 | 5:31.36 | 7:12.52 | 24861 | 57312
3 | 12:44.13 | 5:36.47 | 57313 | 82559
4 | 18:20.60 | 4:37.33 | 82560 | 103367
5 | 22:58.18 | 3:53.41 | 103368 | 120883
6 | 26:51.59 | 5:02.66 | 120884 | 143599
7 | 31:54.50 | 6:22.50 | 143600 | 172299
8 | 38:17.25 | 5:03.07 | 172300 | 195031
9 | 43:20.32 | 5:45.63 | 195032 | 220969
10 | 49:06.20 | 9:37.01 | 220970 | 264245
11 | 58:43.21 | 3:50.54 | 264246 | 281549


Track 1

Filename F:\Music\Jack DeJohnette, John Patitucci & Danilo Perez - Music We Are (2009) [FLAC]\01 - Tango African.wav

Pre-gap length 0:00:02.00

Peak level 98.8 %
Track quality 100.0 %
Test CRC B87A05B6
Copy CRC B87A05B6
Track not present in AccurateRip database
Copy OK

Track 2

Filename F:\Music\Jack DeJohnette, John Patitucci & Danilo Perez - Music We Are (2009) [FLAC]\02 - Earth Prayer.wav

Pre-gap length 0:00:02.18

Peak level 98.5 %
Track quality 99.9 %
Test CRC C41676AF
Copy CRC C41676AF
Track not present in AccurateRip database
Copy OK

Track 3

Filename F:\Music\Jack DeJohnette, John Patitucci & Danilo Perez - Music We Are (2009) [FLAC]\03 - Seventh D, 1st Movement.wav

Pre-gap length 0:00:02.00

Peak level 98.8 %
Track quality 100.0 %
Test CRC F8CA1BBE
Copy CRC F8CA1BBE
Track not present in AccurateRip database
Copy OK

Track 4

Filename F:\Music\Jack DeJohnette, John Patitucci & Danilo Perez - Music We Are (2009) [FLAC]\04 - Seventh D, 2nd Movement.wav

Pre-gap length 0:00:02.00

Peak level 98.8 %
Track quality 100.0 %
Test CRC 91BF978D
Copy CRC 91BF978D
Track not present in AccurateRip database
Copy OK

Track 5

Filename F:\Music\Jack DeJohnette, John Patitucci & Danilo Perez - Music We Are (2009) [FLAC]\05 - Soulful Ballad.wav

Pre-gap length 0:00:02.60

Peak level 91.2 %
Track quality 100.0 %
Test CRC 1AD28183
Copy CRC 1AD28183
Track not present in AccurateRip database
Copy OK

Track 6

Filename F:\Music\Jack DeJohnette, John Patitucci & Danilo Perez - Music We Are (2009) [FLAC]\06 - Earth Speaks.wav

Pre-gap length 0:00:02.37

Peak level 98.8 %
Track quality 100.0 %
Test CRC 4887E4C0
Copy CRC 4887E4C0
Track not present in AccurateRip database
Copy OK

Track 7

Filename F:\Music\Jack DeJohnette, John Patitucci & Danilo Perez - Music We Are (2009) [FLAC]\07 - Cobilla.wav

Pre-gap length 0:00:02.28

Peak level 98.8 %
Track quality 100.0 %
Test CRC 5F2EF32D
Copy CRC 5F2EF32D
Track not present in AccurateRip database
Copy OK

Track 8

Filename F:\Music\Jack DeJohnette, John Patitucci & Danilo Perez - Music We Are (2009) [FLAC]\08 - Panama Viejo.wav

Pre-gap length 0:00:02.94

Peak level 98.8 %
Track quality 100.0 %
Test CRC FD4736B8
Copy CRC FD4736B8
Track not present in AccurateRip database
Copy OK

Track 9

Filename F:\Music\Jack DeJohnette, John Patitucci & Danilo Perez - Music We Are (2009) [FLAC]\09 - White.wav

Pre-gap length 0:00:02.33

Peak level 98.8 %
Track quality 100.0 %
Test CRC 4682D6F9
Copy CRC 4682D6F9
Track not present in AccurateRip database
Copy OK

Track 10

Filename F:\Music\Jack DeJohnette, John Patitucci & Danilo Perez - Music We Are (2009) [FLAC]\10 - Ode To MJQ.wav

Pre-gap length 0:00:02.33

Peak level 98.8 %
Track quality 100.0 %
Test CRC C0259E38
Copy CRC C0259E38
Track not present in AccurateRip database
Copy OK

Track 11

Filename F:\Music\Jack DeJohnette, John Patitucci & Danilo Perez - Music We Are (2009) [FLAC]\11 - Michael.wav

Pre-gap length 0:00:02.37

Peak level 96.6 %
Track quality 100.0 %
Test CRC A7F8DE8B
Copy CRC A7F8DE8B
Track not present in AccurateRip database
Copy OK


None of the tracks are present in the AccurateRip database

No errors occurred

End of status report







Download MP3 @320

Parte 1
Parte 2




My Blog. Enjoy }i{