Tags
Language
Tags

Dewey Redman - The Ear of the Behearer (1973) {Impulse! IMPD-271 rel 1998}

Posted By: ruskaval
Dewey Redman - The Ear of the Behearer (1973) {Impulse! IMPD-271 rel 1998}

Dewey Redman - The Ear of the Behearer (1973) {Impulse! IMPD-271 rel 1998}
XLD rip (secure mode) | FLAC (tracks)+CUE+LOG -> 418 Mb | MP3 @320 -> 155 Mb
Full Artwork @ 300 dpi (jpg) -> 13 Mb | 5% repair rar
© 1973, 1998 Impulse! / GRP /MCA | IMPD-271
Jazz / Post Bop / Avant-Garde Jazz / Saxophone

This 1998 CD reissues Dewey Redman's entire The Ear of the Behearer album (although it leaves out an alternate take of "Interconnection" that was released on a different set), plus four of the seven selections from his Coincide record of a year later. Some of the music is quite adventurous and free, while other tracks include some freebop, a struttin' blues ("Boody"), and quieter ballads. Redman, a distinctive tenor saxophonist, actually plays alto on five of the first six selections; he is less memorable (although no less exploratory) on the smaller horn.

Redman is joined on most cuts by trumpeter Ted Daniel, throughout the Behearer date by cellist Jane Robertson, and on the full set by bassist Sirone and drummer Eddie Moore; violinist Leroy Jenkins and percussionist Danny Johnson also make guest appearances. These two albums were Redman's only sets as a leader for Impulse. Intriguing music.
Dewey Redman - The Ear of the Behearer (1973) {Impulse! IMPD-271 rel 1998}


Personnel

Dewey Redman - alto saxophone (#1,4,6), tenor saxophone (#2,3,5,8-11), musette (#7)
Ted Daniel - trumpet (#1-6,8), Moroccan bugle (#7)
Jane Robertson - cello (#1-7)
Leroy Jenkins - violin (#8)
Sirone - bass (#1-11), wood flute (#7)
Eddie Moore - drums (#1-3,5-11), gong (#2), saw (#4), tympani (#4)
Danny Johnson - percussion (#2,4,6)

Recorded at Generation Sound Studios, New York on June 8-9, 1973 (#1-7) and September 9-10, 1974 (#8-11).

Track Listing:

01 - Innerconnection
02 - Imani
03 - Walls-Bridges
04 - PS
05 - Boody
06 - Sunlanding
07 - Image (In Disguise)
08 - Seeds and Deeds
09 - Joie de Vivre
10 - Funcitydues
11 - QOW

X Lossless Decoder version 20130602 (143.2)

XLD extraction logfile from 2013-06-13 23:49:00 -0600

Dewey Redman / The Ear Of The Behearer

Used drive : HL-DT-ST DVDRW GS31N (revision TA17)
Media type : Pressed CD

Ripper mode : XLD Secure Ripper
Disable audio cache : OK for the drive with a cache less than 1375KiB
Make use of C2 pointers : NO
Read offset correction : 667
Max retry count : 100
Gap status : Analyzed, Appended (except HTOA)

TOC of the extracted CD
Track | Start | Length | Start sector | End sector
––––––––––––––––––––––––––––-
1 | 00:00:00 | 04:55:22 | 0 | 22146
2 | 04:55:22 | 07:09:23 | 22147 | 54344
3 | 12:04:45 | 04:08:40 | 54345 | 72984
4 | 16:13:10 | 05:38:55 | 72985 | 98389
5 | 21:51:65 | 12:05:10 | 98390 | 152774
6 | 33:57:00 | 02:25:27 | 152775 | 163676
7 | 36:22:27 | 06:34:20 | 163677 | 193246
8 | 42:56:47 | 04:52:50 | 193247 | 215196
9 | 47:49:22 | 03:22:55 | 215197 | 230401
10 | 51:12:02 | 03:17:00 | 230402 | 245176
11 | 54:29:02 | 10:17:50 | 245177 | 291501

AccurateRip Summary (DiscID: 001a8c44-00e56bd5-a00f2e0b)
Track 01 : OK (v1, confidence 4/4)
Track 02 : OK (v1, confidence 4/4)
Track 03 : OK (v1, confidence 4/4)
Track 04 : OK (v1, confidence 4/4)
Track 05 : OK (v1, confidence 3/3)
Track 06 : OK (v1, confidence 4/4)
Track 07 : OK (v1, confidence 4/4)
Track 08 : OK (v1, confidence 4/4)
Track 09 : OK (v1, confidence 4/4)
Track 10 : OK (v1, confidence 4/4)
Track 11 : NG (total 4 submissions)
->10 tracks accurately ripped, 1 track not

All Tracks
Album gain : -4.72 dB
Peak : 0.997925
Statistics
Read error : 0
Jitter error (maybe fixed) : 0
Retry sector count : 1
Damaged sector count : 0

Track 01
Filename : /Volumes/Torrent and CD Archive/Torrents/Dewey Redman - The Ear of the Behearer (1974) FLAC/01 Dewey Redman - Innerconnection.flac
Pre-gap length : 00:02:00

Track gain : -4.88 dB
Peak : 0.980652
CRC32 hash (test run) : 211605CD
CRC32 hash : 211605CD
CRC32 hash (skip zero) : AFF871A4
AccurateRip v1 signature : 8CBDBC9B
AccurateRip v2 signature : EA7179D1
->Accurately ripped (v1, confidence 4/4)
Statistics
Read error : 0
Jitter error (maybe fixed) : 0
Retry sector count : 0
Damaged sector count : 0

Track 02
Filename : /Volumes/Torrent and CD Archive/Torrents/Dewey Redman - The Ear of the Behearer (1974) FLAC/02 Dewey Redman - Imani.flac
Pre-gap length : 00:01:42

Track gain : -4.86 dB
Peak : 0.941833
CRC32 hash (test run) : C6D2F037
CRC32 hash : C6D2F037
CRC32 hash (skip zero) : 81FF1554
AccurateRip v1 signature : 9BB63ADF
AccurateRip v2 signature : 9A291B0C
->Accurately ripped (v1, confidence 4/4)
Statistics
Read error : 0
Jitter error (maybe fixed) : 0
Retry sector count : 0
Damaged sector count : 0

Track 03
Filename : /Volumes/Torrent and CD Archive/Torrents/Dewey Redman - The Ear of the Behearer (1974) FLAC/03 Dewey Redman - Walls-Bridges.flac
Pre-gap length : 00:01:43

Track gain : -5.08 dB
Peak : 0.993134
CRC32 hash (test run) : AECD77E9
CRC32 hash : AECD77E9
CRC32 hash (skip zero) : 49A35E51
AccurateRip v1 signature : 2D2B41DF
AccurateRip v2 signature : 95E902D3
->Accurately ripped (v1, confidence 4/4)
Statistics
Read error : 0
Jitter error (maybe fixed) : 0
Retry sector count : 0
Damaged sector count : 0

Track 04
Filename : /Volumes/Torrent and CD Archive/Torrents/Dewey Redman - The Ear of the Behearer (1974) FLAC/04 Dewey Redman - PS 5:36.flac
Pre-gap length : 00:01:53

Track gain : -4.50 dB
Peak : 0.991455
CRC32 hash (test run) : 3B6288EE
CRC32 hash : 3B6288EE
CRC32 hash (skip zero) : 9A260086
AccurateRip v1 signature : 9219D8DB
AccurateRip v2 signature : 326808EC
->Accurately ripped (v1, confidence 4/4)
Statistics
Read error : 0
Jitter error (maybe fixed) : 0
Retry sector count : 0
Damaged sector count : 0

Track 05
Filename : /Volumes/Torrent and CD Archive/Torrents/Dewey Redman - The Ear of the Behearer (1974) FLAC/05 Dewey Redman - Boody.flac
Pre-gap length : 00:01:65

Track gain : -3.86 dB
Peak : 0.951660
CRC32 hash (test run) : 4B062113
CRC32 hash : 4B062113
CRC32 hash (skip zero) : E6B8ED06
AccurateRip v1 signature : E57CE6ED
AccurateRip v2 signature : 4A23C5C3
->Accurately ripped (v1, confidence 3/3)
Statistics
Read error : 0
Jitter error (maybe fixed) : 0
Retry sector count : 0
Damaged sector count : 0

Track 06
Filename : /Volumes/Torrent and CD Archive/Torrents/Dewey Redman - The Ear of the Behearer (1974) FLAC/06 Dewey Redman - Sunlanding.flac

Track gain : -4.84 dB
Peak : 0.865387
CRC32 hash (test run) : 6CC1D2FE
CRC32 hash : 6CC1D2FE
CRC32 hash (skip zero) : 8ADC5756
AccurateRip v1 signature : 6676032B
AccurateRip v2 signature : A2D4CC11
->Accurately ripped (v1, confidence 4/4)
Statistics
Read error : 0
Jitter error (maybe fixed) : 0
Retry sector count : 0
Damaged sector count : 0

Track 07
Filename : /Volumes/Torrent and CD Archive/Torrents/Dewey Redman - The Ear of the Behearer (1974) FLAC/07 Dewey Redman - Image (In Disguise).flac

Track gain : -5.55 dB
Peak : 0.850189
CRC32 hash (test run) : 28E76DAF
CRC32 hash : 28E76DAF
CRC32 hash (skip zero) : 21524820
AccurateRip v1 signature : 4F711E68
AccurateRip v2 signature : F0912D1E
->Accurately ripped (v1, confidence 4/4)
Statistics
Read error : 0
Jitter error (maybe fixed) : 0
Retry sector count : 0
Damaged sector count : 0

Track 08
Filename : /Volumes/Torrent and CD Archive/Torrents/Dewey Redman - The Ear of the Behearer (1974) FLAC/08 Dewey Redman - Seeds And Deeds.flac
Pre-gap length : 00:01:42

Track gain : -4.51 dB
Peak : 0.949951
CRC32 hash (test run) : 01B29B90
CRC32 hash : 01B29B90
CRC32 hash (skip zero) : 56BCD332
AccurateRip v1 signature : 937671EF
AccurateRip v2 signature : BE623B35
->Accurately ripped (v1, confidence 4/4)
Statistics
Read error : 0
Jitter error (maybe fixed) : 0
Retry sector count : 0
Damaged sector count : 0

Track 09
Filename : /Volumes/Torrent and CD Archive/Torrents/Dewey Redman - The Ear of the Behearer (1974) FLAC/09 Dewey Redman - Joie De Vivre.flac
Pre-gap length : 00:01:42

Track gain : -5.27 dB
Peak : 0.997925
CRC32 hash (test run) : 27411F93
CRC32 hash : 27411F93
CRC32 hash (skip zero) : 1C628BE8
AccurateRip v1 signature : 3784ACFD
AccurateRip v2 signature : F98523B8
->Accurately ripped (v1, confidence 4/4)
Statistics
Read error : 0
Jitter error (maybe fixed) : 0
Retry sector count : 0
Damaged sector count : 0

Track 10
Filename : /Volumes/Torrent and CD Archive/Torrents/Dewey Redman - The Ear of the Behearer (1974) FLAC/10 Dewey Redman - Funcitydues.flac
Pre-gap length : 00:02:43

Track gain : -4.92 dB
Peak : 0.992035
CRC32 hash (test run) : 99A6ACAC
CRC32 hash : 99A6ACAC
CRC32 hash (skip zero) : A28CACE1
AccurateRip v1 signature : 0EA2B542
AccurateRip v2 signature : 0DA042C4
->Accurately ripped (v1, confidence 4/4)
Statistics
Read error : 0
Jitter error (maybe fixed) : 0
Retry sector count : 0
Damaged sector count : 0

Track 11
Filename : /Volumes/Torrent and CD Archive/Torrents/Dewey Redman - The Ear of the Behearer (1974) FLAC/11 Dewey Redman - QOW.flac
Pre-gap length : 00:01:43

Track gain : -4.05 dB
Peak : 0.985107
CRC32 hash (test run) : 170BB15D
CRC32 hash : 170BB15D
CRC32 hash (skip zero) : B3E45101
AccurateRip v1 signature : 7A453E22
AccurateRip v2 signature : B41227CF
->Rip may not be accurate (total 4 submissions).
Statistics
Read error : 0
Jitter error (maybe fixed) : 0
Retry sector count : 1
Damaged sector count : 0

No errors occurred

End of status report


Dewey Redman - The Ear of the Behearer (1973) {Impulse! IMPD-271 rel 1998}

Dewey Redman - The Ear of the Behearer (1973) {Impulse! IMPD-271 rel 1998}



===