Subcategories

Dietrich Buxtehude - Complete Works for Organ, Volume 4 - Bine Bryndorf (2006) {Dacapo 6.220514}

Posted By: ruskaval
Dietrich Buxtehude - Complete Works for Organ, Volume 4 - Bine Bryndorf (2006) {Dacapo 6.220514}

Dietrich Buxtehude - Complete Works for Organ, Volume 4 - Bine Bryndorf (2006) {Dacapo 6.220514}
EAC rip (secure mode) | FLAC (tracks)+CUE+LOG -> 326 Mb | MP3 @320 -> 157 Mb
Full Artwork @ 300 dpi (jpg) -> 29 Mb | 5% repair rar
© 2006 Dacapo | 6.220514
Classical / Baroque / Organ

Dietrich Buxtehude's organ works are today in the standard repertoire for organists all over the world, but this is the first time an organist has engaged so intimately with Buxtehude by using the very instrument on which the works were composed. Dacapo Records' new Buxtehude series will consist of a total of six CDs, and besides the St. Mary's Church in Elsinore they will be recorded in the other two churches where the composer was employed, the S:ta Maria Church in Helsingborg and the Marienkirche in Lübeck.
Dietrich Buxtehude - Complete Works for Organ, Volume 4 - Bine Bryndorf (2006) {Dacapo 6.220514}

The Danish-born organ master Dietrich Buxtehude's (c.1637-1707) music greatly influenced the younger J.S. Bach with its clarity of line, its nobility and its often daring harmonic invention, all combined in the stylus phantasticus. This exclusively authentic recording of Buxtehude's complete organ works takes us to Stockholm and the church of Buxtehude's most noble and honoured friend\, Gustav Düben, who is also responsible for handing down most of Buxtehude's oeuvre.
Dietrich Buxtehude - Complete Works for Organ, Volume 4 - Bine Bryndorf (2006) {Dacapo 6.220514}


dacapo-records.dk INFO

Personnel:
Bine Bryndorf - organ

Recorded in the German Church of Stockholm 30-31 March 2005.

Works on This Recording

1.
Toccata for Keyboard in F major, BuxWV 157 by Dietrich Buxtehude
Performer: Bine Bryndorf (Organ)
Period: Baroque
Written: circa 1690; Germany
Venue: Tyska Kyrkan, Gamla Stan, Stockholm
Length: 4 Minutes 55 Secs.
Notes: Tyska Kyrkan, Gamla Stan, Stockholm (03/30/2005 - 03/31/2005)
2.
Gelobet seist du, Jesu Christ, BuxWV 188 by Dietrich Buxtehude
Performer: Bine Bryndorf (Organ)
Period: Baroque
Written: Germany
Venue: Tyska Kyrkan, Gamla Stan, Stockholm
Length: 8 Minutes 9 Secs.
Notes: Tyska Kyrkan, Gamla Stan, Stockholm (03/30/2005 - 03/31/2005)
3.
Nun lob mein Seel' den Herren, BuxWV 212 by Dietrich Buxtehude
Performer: Bine Bryndorf (Organ)
Period: Baroque
Written: Germany
Venue: Tyska Kyrkan, Gamla Stan, Stockholm
Length: 3 Minutes 47 Secs.
Notes: Tyska Kyrkan, Gamla Stan, Stockholm (03/30/2005 - 03/31/2005)
4.
Praeludium for Keyboard in G major, BuxWV 147 by Dietrich Buxtehude
Performer: Bine Bryndorf (Organ)
Period: Baroque
Written: Germany
Venue: Tyska Kyrkan, Gamla Stan, Stockholm
Length: 3 Minutes 47 Secs.
Notes: Tyska Kyrkan, Gamla Stan, Stockholm (03/30/2005 - 03/31/2005)
5.
Canzona for Organ in C major, BuxWV 167 by Dietrich Buxtehude
Performer: Bine Bryndorf (Organ)
Period: Baroque
Written: Germany
Venue: Tyska Kyrkan, Gamla Stan, Stockholm
Length: 1 Minutes 12 Secs.
Notes: Tyska Kyrkan, Gamla Stan, Stockholm (03/30/2005 - 03/31/2005)
6.
Canzonetta for Organ in G major, BuxWV 171 by Dietrich Buxtehude
Performer: Bine Bryndorf (Organ)
Period: Baroque
Written: Germany
Venue: Tyska Kyrkan, Gamla Stan, Stockholm
Length: 2 Minutes 8 Secs.
Notes: Tyska Kyrkan, Gamla Stan, Stockholm (03/30/2005 - 03/31/2005)
7.
Magnificat primi toni, BuxWV 204 by Dietrich Buxtehude
Performer: Bine Bryndorf (Organ)
Period: Baroque
Written: Germany
Venue: Tyska Kyrkan, Gamla Stan, Stockholm
Length: 3 Minutes 49 Secs.
Notes: Tyska Kyrkan, Gamla Stan, Stockholm (03/30/2005 - 03/31/2005)
8.
Nun freut euch, lieben Christen, g'mein, BuxWV 210 by Dietrich Buxtehude
Performer: Bine Bryndorf (Organ)
Period: Baroque
Written: Germany
Venue: Tyska Kyrkan, Gamla Stan, Stockholm
Length: 12 Minutes 21 Secs.
Notes: Tyska Kyrkan, Gamla Stan, Stockholm (03/30/2005 - 03/31/2005)
9.
Canzonetta for Organ in D minor, BuxWV 168 by Dietrich Buxtehude
Performer: Bine Bryndorf (Organ)
Period: Baroque
Written: Germany
Venue: Tyska Kyrkan, Gamla Stan, Stockholm
Length: 4 Minutes 4 Secs.
Notes: Tyska Kyrkan, Gamla Stan, Stockholm (03/30/2005 - 03/31/2005)
10.
Praeludium for Keyboard in F major, BuxWV 144 by Dietrich Buxtehude
Performer: Bine Bryndorf (Organ)
Period: Baroque
Written: Germany
Venue: Tyska Kyrkan, Gamla Stan, Stockholm
Length: 3 Minutes 19 Secs.
Notes: Tyska Kyrkan, Gamla Stan, Stockholm (03/30/2005 - 03/31/2005)
11.
Ich ruf zu dir, Herr Jesu Christ, BuxWV 196 by Dietrich Buxtehude
Performer: Bine Bryndorf (Organ)
Period: Baroque
Written: Germany
Venue: Tyska Kyrkan, Gamla Stan, Stockholm
Length: 3 Minutes 14 Secs.
Notes: Tyska Kyrkan, Gamla Stan, Stockholm (03/30/2005 - 03/31/2005)
12.
Wie schön leuchtet der Morgenstern, BuxWV 223 by Dietrich Buxtehude
Performer: Bine Bryndorf (Organ)
Period: Baroque
Written: Germany
Venue: Tyska Kyrkan, Gamla Stan, Stockholm
Length: 7 Minutes 19 Secs.
Notes: Tyska Kyrkan, Gamla Stan, Stockholm (03/30/2005 - 03/31/2005)
13.
Toccata for Keyboard in D minor, BuxWV 155 by Dietrich Buxtehude
Performer: Bine Bryndorf (Organ)
Venue: Tyska Kyrkan, Gamla Stan, Stockholm
Length: 7 Minutes 20 Secs.
Notes: Tyska Kyrkan, Gamla Stan, Stockholm (03/30/2005 - 03/31/2005)

Exact Audio Copy V1.3 from 2. September 2016

EAC extraction logfile from 15. November 2016, 8:11

Dietrich Buxtehude; Bine Bryndorf / The Complete Organ Works

Used drive : HL-DT-STBD-RE BH12LS38 Adapter: 1 ID: 0

Read mode : Secure
Utilize accurate stream : Yes
Defeat audio cache : Yes
Make use of C2 pointers : No

Read offset correction : 667
Overread into Lead-In and Lead-Out : No
Fill up missing offset samples with silence : Yes
Delete leading and trailing silent blocks : No
Null samples used in CRC calculations : Yes
Used interface : Native Win32 interface for Win NT & 2000
Gap handling : Appended to previous track

Used output format : User Defined Encoder
Selected bitrate : 1024 kBit/s
Quality : High
Add ID3 tag : No
Command line compressor : J:\Documents\Utilities\Audio\FLAC\flac.exe
Additional command line options : -8 -V -T "ARTIST=%artist%" -T "TITLE=%title%" -T "ALBUM=%albumtitle%" -T "DATE=%year%" -T "TRACKNUMBER=%tracknr%" -T "GENRE=%genre%" -T "COMPOSER=%composer%" %haslyrics%–tag-from-file=LYRICS="%lyricsfile%"%haslyrics% -T "ALBUMARTIST=%albumartist%" -T "DISCNUMBER=%cdnumber%" -T "TOTALDISCS=%totalcds%" -T "TOTALTRACKS=%numtracks%" -T "COMMENT=%comment%" %source% -o %dest%


TOC of the extracted CD

Track | Start | Length | Start sector | End sector
––––––––––––––––––––––––––––-
1 | 0:00.00 | 4:55.15 | 0 | 22139
2 | 4:55.15 | 8:09.63 | 22140 | 58877
3 | 13:05.03 | 3:47.70 | 58878 | 75972
4 | 16:52.73 | 3:47.00 | 75973 | 92997
5 | 20:39.73 | 1:12.67 | 92998 | 98464
6 | 21:52.65 | 2:08.08 | 98465 | 108072
7 | 24:00.73 | 3:49.30 | 108073 | 125277
8 | 27:50.28 | 12:21.12 | 125278 | 180864
9 | 40:11.40 | 4:04.33 | 180865 | 199197
10 | 44:15.73 | 3:19.00 | 199198 | 214122
11 | 47:34.73 | 3:14.22 | 214123 | 228694
12 | 50:49.20 | 7:19.53 | 228695 | 261672
13 | 58:08.73 | 7:20.27 | 261673 | 294699


Track 1

Filename J:\Process\Music\Buxtehude (Bryndorf)\Disc 4\01 - Dietrich Buxtehude - Toccata in F major, BuxWV 157.wav

Pre-gap length 0:00:02.00

Peak level 89.8 %
Extraction speed 1.3 X
Track quality 100.0 %
Test CRC 4F2E6DDC
Copy CRC 4F2E6DDC
Accurately ripped (confidence 3) [9133238F] (AR v2)
Copy OK

Track 2

Filename J:\Process\Music\Buxtehude (Bryndorf)\Disc 4\02 - Dietrich Buxtehude - Gelobet seist du, Jesu Christ, à 2 Clav., BuxWV 188.wav

Pre-gap length 0:00:05.89

Peak level 79.4 %
Extraction speed 1.5 X
Track quality 100.0 %
Test CRC CE00A501
Copy CRC CE00A501
Accurately ripped (confidence 3) [9402D956] (AR v2)
Copy OK

Track 3

Filename J:\Process\Music\Buxtehude (Bryndorf)\Disc 4\03 - Dietrich Buxtehude - Nun lob, mein Seel, den Herren, BuxWV 212.wav

Pre-gap length 0:00:04.24

Peak level 48.7 %
Extraction speed 1.6 X
Track quality 100.0 %
Test CRC 585D9571
Copy CRC 585D9571
Accurately ripped (confidence 3) [0FAA31EF] (AR v2)
Copy OK

Track 4

Filename J:\Process\Music\Buxtehude (Bryndorf)\Disc 4\04 - Dietrich Buxtehude - Praeludium in G major, BuxWV 147.wav

Pre-gap length 0:00:02.90

Peak level 90.2 %
Extraction speed 1.6 X
Track quality 100.0 %
Test CRC D1F4A40A
Copy CRC D1F4A40A
Accurately ripped (confidence 3) [16AB3C76] (AR v2)
Copy OK

Track 5

Filename J:\Process\Music\Buxtehude (Bryndorf)\Disc 4\05 - Dietrich Buxtehude - Canzonetta in C major, BuxWV 167.wav

Pre-gap length 0:00:03.13

Peak level 18.9 %
Extraction speed 1.3 X
Track quality 100.0 %
Test CRC C435EC54
Copy CRC C435EC54
Accurately ripped (confidence 3) [ACC876C8] (AR v2)
Copy OK

Track 6

Filename J:\Process\Music\Buxtehude (Bryndorf)\Disc 4\06 - Dietrich Buxtehude - Canzonetta in G major, BuxWV 171.wav

Pre-gap length 0:00:00.89

Peak level 26.9 %
Extraction speed 1.3 X
Track quality 99.9 %
Test CRC 61B664A7
Copy CRC 61B664A7
Accurately ripped (confidence 3) [6E28919B] (AR v2)
Copy OK

Track 7

Filename J:\Process\Music\Buxtehude (Bryndorf)\Disc 4\07 - Dietrich Buxtehude - Magnificat I. Toni, BuxWV 204.wav

Pre-gap length 0:00:03.00

Peak level 89.6 %
Extraction speed 1.6 X
Track quality 99.9 %
Test CRC FBFD9150
Copy CRC FBFD9150
Accurately ripped (confidence 3) [023F767F] (AR v2)
Copy OK

Track 8

Filename J:\Process\Music\Buxtehude (Bryndorf)\Disc 4\08 - Dietrich Buxtehude - Nun freut euch, lieben Christen g’mein, à 2 Clav., BuxWV 210.wav

Pre-gap length 0:00:02.70

Peak level 73.9 %
Extraction speed 2.2 X
Track quality 100.0 %
Test CRC 6B68A03C
Copy CRC 6B68A03C
Accurately ripped (confidence 3) [EFE706A1] (AR v2)
Copy OK

Track 9

Filename J:\Process\Music\Buxtehude (Bryndorf)\Disc 4\09 - Dietrich Buxtehude - Canzonetta in d minor, BuxWV 168.wav

Pre-gap length 0:00:03.56

Peak level 52.0 %
Extraction speed 2.1 X
Track quality 100.0 %
Test CRC 55BEAA9C
Copy CRC 55BEAA9C
Accurately ripped (confidence 3) [C0D9B915] (AR v2)
Copy OK

Track 10

Filename J:\Process\Music\Buxtehude (Bryndorf)\Disc 4\10 - Dietrich Buxtehude - Praeludium in F major, BuxWV 144.wav

Pre-gap length 0:00:02.00

Peak level 90.0 %
Extraction speed 2.1 X
Track quality 100.0 %
Test CRC 291F131D
Copy CRC 291F131D
Accurately ripped (confidence 3) [398E3224] (AR v2)
Copy OK

Track 11

Filename J:\Process\Music\Buxtehude (Bryndorf)\Disc 4\11 - Dietrich Buxtehude - Ich ruf zu dir, Herr Jesu Christ, BuxWV 196.wav

Pre-gap length 0:00:02.00

Peak level 49.0 %
Extraction speed 2.1 X
Track quality 100.0 %
Test CRC 65887A25
Copy CRC 65887A25
Accurately ripped (confidence 3) [BB5AC5EA] (AR v2)
Copy OK

Track 12

Filename J:\Process\Music\Buxtehude (Bryndorf)\Disc 4\12 - Dietrich Buxtehude - Wie schön leuchtet der Morgenstern, BuxWV 223.wav

Pre-gap length 0:00:02.09

Peak level 69.5 %
Extraction speed 2.4 X
Track quality 100.0 %
Test CRC 369B893F
Copy CRC 369B893F
Accurately ripped (confidence 3) [96142BD8] (AR v2)
Copy OK

Track 13

Filename J:\Process\Music\Buxtehude (Bryndorf)\Disc 4\13 - Dietrich Buxtehude - Toccata in D minor, BuxWV 155.wav

Pre-gap length 0:00:04.06

Peak level 88.2 %
Extraction speed 2.5 X
Track quality 100.0 %
Test CRC 4294886C
Copy CRC 4294886C
Accurately ripped (confidence 3) [678C43C9] (AR v2)
Copy OK


All tracks accurately ripped

No errors occurred

End of status report

–– CUETools DB Plugin V2.1.6

[CTDB TOCID: 6RnMvbtI9ZJG6wKZ1w1pry6qX_4-] found
Submit result: 6RnMvbtI9ZJG6wKZ1w1pry6qX_4- has been confirmed
Track | CTDB Status
1 | (6/6) Accurately ripped
2 | (6/6) Accurately ripped
3 | (6/6) Accurately ripped
4 | (6/6) Accurately ripped
5 | (6/6) Accurately ripped
6 | (6/6) Accurately ripped
7 | (6/6) Accurately ripped
8 | (6/6) Accurately ripped
9 | (6/6) Accurately ripped
10 | (6/6) Accurately ripped
11 | (6/6) Accurately ripped
12 | (6/6) Accurately ripped
13 | (6/6) Accurately ripped


==== Log checksum 6FD736B950FEE3F835612E559E87229E1808872C36DDB32F3BC1F9D60DA1BD9C ====


Dietrich Buxtehude - Complete Works for Organ, Volume 4 - Bine Bryndorf (2006) {Dacapo 6.220514}


see more Dietrich Buxtehude…


===