The Doobie Brothers - Extended Versions (Live 1996) [CD '2006] RE-UP

Posted By: perfecta
The Doobie Brothers - Extended Versions (Live 1996) [CD '2006] RE-UP

The Doobie Brothers - Extended Versions (2006)
EAC Rip | FLAC with CUE & LOG - 354 MB | Covers | MP3 CBR 320 Kbps - 122 MB
Live 1996 | TT - 45:01 minutes | Label: Custom Marketing Group | Cat. # A 689044

As one of the most popular California pop/rock bands of the '70s, the Doobie Brothers evolved from a mellow, post-hippie boogie band to a slick, soul-inflected pop band by the end of the decade. Along the way, the group racked up a string of gold and platinum albums in the U.S., along with a number of radio hits like "Listen to the Music", "Black Water", and "China Grove".

This is another in a long list of live recordings that have been culled from previously released material and packaged for Sony/BMG's "Extended Versions" budget line. This time, the ten songs in this live collection from "The Doobie Brothers" is taken from 1996's "Rockin' Down the Highway: The Wildlife Concert," which was a 24-track, 2-CD collection of the band's greatest hits. The major attraction of this release is that it features both Tom Johnston and Patrick Simmons on lead vocals, along with Michael McDonald sitting in for a few songs. This represents a good opportunity to pick up live performances of some of the Doobies' greatest hits inexpensively, but those owning the original CD (and another CD culled from it titled "Best of the Doobie Brothers Live") can save their money. There's good playing and good song selection on this release, but Doobie fans have heard it all before.

Tracks:

01. Rockin' Down The Highway
02. China Grove
03. What A Fool Believes
04. Long Train Runnin'
05. Black Water
06. Minute By Minute
07. Jesus Is Just Alright
08. The Doctor
09. Takin' It To The Streets
10. Listen To The Music

Produced by The Doobie Brothers & Charlie Midnight.
Recorded Live May 5 & 6 at Sony Music Studios, NY. to benefit The Wildlife Conversation Society.

- Tom Johnston: guitar, vocals
- Pat Simmons: guitar, vocals
- Michael McDonald: keyboards, vocals
- Keith Knudsen: drums, vocals
- Mike Hossack: drums
- John McFee: guitar, strinds, vocals
- Skylark: bass
- Dale Ockermann: keyboards, guitar, vocals
- Danny Hull: keyboards, sax, harmonica, vocals

Additional Musicians:
- Cornelius Bumpus: keyboards, saxophone, vocals
- Carlos Guaico & Buck Johnson: background vocals
- Guy Allison: keyboards

Exact Audio Copy V1.0 beta 1 from 15. November 2010

EAC extraction logfile from 23. March 2012, 22:59

The Doobie Brothers / Extended Versions

Used drive : SAMSUNG DVD-ROM SD-616E Adapter: 3 ID: 0

Read mode : Secure
Utilize accurate stream : Yes
Defeat audio cache : Yes
Make use of C2 pointers : No

Read offset correction : 12
Overread into Lead-In and Lead-Out : No
Fill up missing offset samples with silence : Yes
Delete leading and trailing silent blocks : No
Null samples used in CRC calculations : Yes
Used interface : Native Win32 interface for Win NT & 2000

Used output format : Internal WAV Routines
Sample format : 44.100 Hz; 16 Bit; Stereo


TOC of the extracted CD

Track | Start | Length | Start sector | End sector
––––––––––––––––––––––––––––-
1 | 0:00.00 | 3:26.39 | 0 | 15488
2 | 3:26.39 | 3:59.08 | 15489 | 33421
3 | 7:25.47 | 3:54.55 | 33422 | 51026
4 | 11:20.27 | 5:55.50 | 51027 | 77701
5 | 17:16.02 | 4:30.21 | 77702 | 97972
6 | 21:46.23 | 4:22.52 | 97973 | 117674
7 | 26:09.00 | 4:52.04 | 117675 | 139578
8 | 31:01.04 | 3:47.72 | 139579 | 156675
9 | 34:49.01 | 4:41.19 | 156676 | 177769
10 | 39:30.20 | 5:30.21 | 177770 | 202540


Range status and errors

Selected range

Filename C:\Documents and Settings\Borya\Desktop\dobro\The Doobie Brothers - Extended Versions.wav

Peak level 97.7 %
Extraction speed 0.6 X
Range quality 100.0 %
Copy CRC 7B04821F
Copy OK

No errors occurred


AccurateRip summary

Track 1 accurately ripped (confidence 3) [ADAE3F39]
Track 2 accurately ripped (confidence 3) [5400F3B3]
Track 3 accurately ripped (confidence 3) [1B0C355C]
Track 4 accurately ripped (confidence 3) [246B8D43]
Track 5 accurately ripped (confidence 3) [E4DB093E]
Track 6 accurately ripped (confidence 3) [0A4CB7D9]
Track 7 accurately ripped (confidence 3) [FDE0A025]
Track 8 accurately ripped (confidence 3) [E4F6DDE2]
Track 9 accurately ripped (confidence 3) [988396FB]
Track 10 accurately ripped (confidence 3) [4EF40EED]

All tracks accurately ripped

End of status report


Thanks to Boris1
FLAC lossless | MP3 320

All Covers included.