Subcategories

Esbjorn Svensson Trio - Retrospective - The Very Best Of E.S.T. (2009) {ACT Music 9021-2}

Posted By: ruskaval
Esbjorn Svensson Trio - Retrospective - The Very Best Of E.S.T. (2009) {ACT Music 9021-2}

Esbjorn Svensson Trio - Retrospective - The Very Best Of E.S.T. (2009) {ACT Music 9021-2}
EAC rip (secure mode) | FLAC (tracks)+CUE+LOG -> 453 Mb | MP3 @320 -> 176 Mb
Full Artwork @ 300 dpi (png) -> 45 Mb | 5% repair rar
© 2009 ACT Music | 9021-2
Jazz / Modern Jazz / Post Bop / Progressive Jazz / Piano Trio

Despite the fact that 2008’ Leucocyte, would be the Esbjörn Svensson Trio's final album due to the tragic scuba diving accident that killed Svensson, this was a band that had traversed such wide musical territory they deserved a retrospective treatment simply to sum up what had transpired between the release of 1993’s When Everyone Has Gone and that premature finale. While this 70-minute single disc doesn’t contain any unreleased material, or pre-1999 material (in favor of presenting the trio’s fully developed aesthetic), it is beautifully compiled.
Esbjorn Svensson Trio - Retrospective - The Very Best Of E.S.T. (2009) {ACT Music 9021-2}

Svensson as both composer and pianist was influenced by everyone from Thelonious Monk and Keith Jarrett to Pat Metheny and Lyle Mays, as well as loads of rock and pop musicians. Bassist Dan Berglund, besides being classically trained, also loved hard rock as well as jazz, and was attracted to its most physical and aesthetically refined players, from Charles Mingus to Barre Phillips, while drummer/percussionist Magnus Öström loved drummers as diverse as Billy Higgins, Elvin Jones, and contemporary Manu Katche. These 13 tracks point to a unifying point of view of strengths and influences – as well as nuances and the love of physical space – that made E.S.T. not only one of the most accessible jazz piano trios of all time, but also one of its most adventurous; they were at the forefront of reinventing its role in modern jazz. While everything in this set is top-notch, particular highlights include “Believe,” “Beleft,” Below,” the short excerpt from Leucocyte’s nearly half-hour title track, “Dodge the Dodo,” “From Gagarin’s Point of View,” “Goldwrap,” and "Dolores in a Shoe.S.T.and." Highly recommended for the curious; a killer mixtape for the fan.
Esbjorn Svensson Trio - Retrospective - The Very Best Of E.S.T. (2009) {ACT Music 9021-2}


ACT Music INFO

Personnel:
Esbjörn Svensson - piano
Dan Berglund - bass
Magnus Öström - drums

tracklist:
01. From Gagarin's Point of View
02. Dodge the Dodo
03. Good Morning Susie Soho
04. Spam-Boo-Limbo
05. Behind the Yashmark
06. Viaticum
07. Seven Days of Falling
08. Strange Place for Snow
09. Believe, Beleft, Below
10. A Picture of Doris Travelling With Boris
11. Goldwrap
12. Dolores in a Shoestand
13. Leucocyte

Exact Audio Copy V0.99 prebeta 5 from 4. May 2009

EAC extraction logfile from 10. September 2010, 9:11

Esbjorn Svensson Trio / Retrospective - The very best of e.s.t.

Used drive : PLEXTOR DVDR PX-860A Adapter: 0 ID: 0

Read mode : Secure
Utilize accurate stream : Yes
Defeat audio cache : Yes
Make use of C2 pointers : No

Read offset correction : 96
Overread into Lead-In and Lead-Out : No
Fill up missing offset samples with silence : Yes
Delete leading and trailing silent blocks : No
Null samples used in CRC calculations : Yes
Used interface : Native Win32 interface for Win NT & 2000
Gap handling : Appended to previous track

Used output format : User Defined Encoder
Selected bitrate : 768 kBit/s
Quality : High
Add ID3 tag : No
Command line compressor : C:\Program Files\FLAC\flac.exe
Additional command line options : -8 -V -T "ARTIST=%a" -T "TITLE=%t" -T "ALBUM=%g" -T "DATE=%y" -T "TRACKNUMBER=%n" -T "TOTALTRACKS=%x" -T "GENRE=%m" -T "ALBUM ARTIST=%v" -T "ALBUMARTIST=%v" -T "COMMENT=EAC V0.99 prebeta 5, Secure Mode, Test & Copy, Accurat


TOC of the extracted CD

Track | Start | Length | Start sector | End sector
––––––––––––––––––––––––––––-
1 | 0:00.00 | 4:05.44 | 0 | 18418
2 | 4:05.44 | 4:19.53 | 18419 | 37896
3 | 8:25.22 | 5:49.17 | 37897 | 64088
4 | 14:14.39 | 4:38.32 | 64089 | 84970
5 | 18:52.71 | 10:09.57 | 84971 | 130702
6 | 29:02.53 | 6:47.40 | 130703 | 161267
7 | 35:50.18 | 5:59.44 | 161268 | 188236
8 | 41:49.62 | 6:39.22 | 188237 | 218183
9 | 48:29.09 | 4:45.24 | 218184 | 239582
10 | 53:14.33 | 5:36.58 | 239583 | 264840
11 | 58:51.16 | 3:50.61 | 264841 | 282151
12 | 62:42.02 | 8:56.70 | 282152 | 322421
13 | 71:38.72 | 3:43.26 | 322422 | 339172


Track 1

Filename M:\DL\Esbjorn Svensson Trio - Retrospective - The very best of e.s.t. (2009) [FLAC]\01 - From Gagarin's Point of View.wav

Pre-gap length 0:00:02.00

Peak level 98.8 %
Track quality 100.0 %
Test CRC 668DC5CB
Copy CRC 668DC5CB
Accurately ripped (confidence 34) [A7CBB3CA]
Copy OK

Track 2

Filename M:\DL\Esbjorn Svensson Trio - Retrospective - The very best of e.s.t. (2009) [FLAC]\02 - Dodge the Dodo.wav

Pre-gap length 0:00:01.17

Peak level 98.9 %
Track quality 100.0 %
Test CRC 81F148B7
Copy CRC 81F148B7
Accurately ripped (confidence 34) [70FD9EF7]
Copy OK

Track 3

Filename M:\DL\Esbjorn Svensson Trio - Retrospective - The very best of e.s.t. (2009) [FLAC]\03 - Good Morning Susie Soho.wav

Pre-gap length 0:00:02.77

Peak level 98.9 %
Track quality 100.0 %
Test CRC 01BB5A53
Copy CRC 01BB5A53
Accurately ripped (confidence 34) [30BD8A47]
Copy OK

Track 4

Filename M:\DL\Esbjorn Svensson Trio - Retrospective - The very best of e.s.t. (2009) [FLAC]\04 - Spam-Boo-Limbo.wav

Pre-gap length 0:00:01.77

Peak level 98.9 %
Track quality 100.0 %
Test CRC 494C4B09
Copy CRC 494C4B09
Accurately ripped (confidence 34) [D5CA8358]
Copy OK

Track 5

Filename M:\DL\Esbjorn Svensson Trio - Retrospective - The very best of e.s.t. (2009) [FLAC]\05 - Behind the Yashmark.wav

Pre-gap length 0:00:01.76

Peak level 98.9 %
Track quality 100.0 %
Test CRC B5AC2554
Copy CRC B5AC2554
Accurately ripped (confidence 34) [E5ACEAB4]
Copy OK

Track 6

Filename M:\DL\Esbjorn Svensson Trio - Retrospective - The very best of e.s.t. (2009) [FLAC]\06 - Viaticum.wav

Pre-gap length 0:00:01.76

Peak level 98.1 %
Track quality 100.0 %
Test CRC C05E98CA
Copy CRC C05E98CA
Accurately ripped (confidence 34) [2FA42465]
Copy OK

Track 7

Filename M:\DL\Esbjorn Svensson Trio - Retrospective - The very best of e.s.t. (2009) [FLAC]\07 - Seven Days of Falling.wav

Pre-gap length 0:00:01.76

Peak level 97.0 %
Track quality 100.0 %
Test CRC C1BA8228
Copy CRC C1BA8228
Accurately ripped (confidence 33) [948D7D62]
Copy OK

Track 8

Filename M:\DL\Esbjorn Svensson Trio - Retrospective - The very best of e.s.t. (2009) [FLAC]\08 - Strange Place for Snow.wav

Pre-gap length 0:00:01.76

Peak level 98.9 %
Track quality 100.0 %
Test CRC 99983460
Copy CRC 99983460
Accurately ripped (confidence 34) [643B5069]
Copy OK

Track 9

Filename M:\DL\Esbjorn Svensson Trio - Retrospective - The very best of e.s.t. (2009) [FLAC]\09 - Believe, Beleft, Below.wav

Pre-gap length 0:00:02.98

Peak level 96.4 %
Track quality 99.9 %
Test CRC 0F2FE8CC
Copy CRC 0F2FE8CC
Accurately ripped (confidence 33) [AB99BB45]
Copy OK

Track 10

Filename M:\DL\Esbjorn Svensson Trio - Retrospective - The very best of e.s.t. (2009) [FLAC]\10 - A Picture of Doris Travelling With Boris.wav

Pre-gap length 0:00:01.76

Peak level 98.9 %
Track quality 100.0 %
Test CRC 655B1283
Copy CRC 655B1283
Accurately ripped (confidence 33) [6FCB5EC3]
Copy OK

Track 11

Filename M:\DL\Esbjorn Svensson Trio - Retrospective - The very best of e.s.t. (2009) [FLAC]\11 - Goldwrap.wav

Pre-gap length 0:00:01.76

Peak level 98.9 %
Track quality 100.0 %
Test CRC 66DE0C35
Copy CRC 66DE0C35
Accurately ripped (confidence 33) [3A4E4743]
Copy OK

Track 12

Filename M:\DL\Esbjorn Svensson Trio - Retrospective - The very best of e.s.t. (2009) [FLAC]\12 - Dolores in a Shoestand.wav

Pre-gap length 0:00:02.98

Peak level 98.9 %
Track quality 99.9 %
Test CRC AB1BD756
Copy CRC AB1BD756
Accurately ripped (confidence 33) [96191148]
Copy OK

Track 13

Filename M:\DL\Esbjorn Svensson Trio - Retrospective - The very best of e.s.t. (2009) [FLAC]\13 - Leucocyte.wav

Pre-gap length 0:00:05.56

Peak level 98.9 %
Track quality 100.0 %
Test CRC 9B98A637
Copy CRC 9B98A637
Accurately ripped (confidence 32) [D8CE1965]
Copy OK


All tracks accurately ripped

No errors occurred

End of status report


Esbjorn Svensson Trio - Retrospective - The Very Best Of E.S.T. (2009) {ACT Music 9021-2}

Esbjorn Svensson Trio - Retrospective - The Very Best Of E.S.T. (2009) {ACT Music 9021-2}




NEXT -> More E.S.T. on the way…

===