Subcategories
Please register here if you want to download anything!

If domain in your address bar is different from the list below
PLEASE LEAVE THAT SITE IMMEDIATELY
❗IT'S A DANGEROUS FAKE❗



Spicy Magazines for Men! ;-)

The Earl Scruggs Revue - Anniversary Special Volume One / Volume Two (1975-1976) {BGO Records BGOCD830 rel 2008}

Posted By: ruskaval
The Earl Scruggs Revue - Anniversary Special Volume One / Volume Two (1975-1976) {BGO Records BGOCD830 rel 2008}

The Earl Scruggs Revue - Anniversary Special Volume One / Volume Two (1975-1976) {BGO Records BGOCD830 rel 2008}
EAC rip (secure mode) | FLAC (tracks)+CUE+LOG -> 439 Mb | MP3 @320 -> 156 Mb
Full Artwork @ 300 dpi (png) -> 45 Mb | 5% repair rar
© 1975-76, 2008 Columbia / Sony BMG Music / BGO Records | BGOCD830
Bluegrass / Country / Folk / Banjo

One-half of the legendary banjo duo Flatt & Scruggs, Earl Scruggs formed his eponymous Revue upon the demise of his longtime partnership with Lester Flatt in early 1969, and promptly began unleashing a stream of excellent albums. Anniversary Special arrived in 1975, marking the banjo man's 25th anniversary of signing with Columbia/CBS Records. It was a guest star-laden affair, with Scruggs and his two sons, the core of the Revue, joined in the studio by a host of country, folk, and other far-flung luminaries.

Johnny Nash, Joan Baez, Billy Joel, and the Pointer Sisters are just a handful of the guests, an aggregate so eclectic one longs to know just how Scruggs knew them all. The booklet supplies the answers, introducing the cast and explaining their surprising links to Scruggs (most more interesting than any degree of separation Kevin Bacon can lay claim to). But as far removed as some of these people are from the banjo star, the set is solidly grounded by the members of the Revue, as they joyfully pick their way through a series of astutely chosen covers, a number related to or written by the guests involved. The album's star power certainly garnered attention, but it was the set's jubilant atmosphere, joyous eclectic flair, and inspired arrangements that pushed the band to its highest placing in the pop chart (just outside the Top 100). Inevitably, then, a second-anniversary set followed the next year. Less is known about this album, with annotator John Tobler suggesting that six of the tracks were initially begun for the first volume, but not, for unknown reasons, completed at the time – these were subsequently finished off with only four new tracks recorded. He makes a good case, but only the most anal of fans will really care. In fact, Tobler raises more questions than he can answer, unstrung by his authoritative take on the first set. But the music is what's important, and although the name cachet was not as star-struck as its predecessor, the album was equally eclectic and entertaining. Considering the pair's history, and being – as they are – two parts of a whole, it's been a long time coming until they were finally reissued together on one disc. Delightfully defying genres, and proving yet again that country music doesn't necessarily start or end with a twang, this very Special set's appeal far exceeds the parameters of bluegrass, country, folk, or any of the other typical tags the Revue had earned. –Jo-Ann Greene, AllMusicGuide.
The Earl Scruggs Revue - Anniversary Special Volume One / Volume Two (1975-1976) {BGO Records BGOCD830 rel 2008}


Track Listing:
Anniversary Special Volume One (1975)

1. Banjo Man
2. The Swimming Song
3. Gospel Ship
4. Bleeker Street Rag
5. Royal Majesty
6. Rollin' In My Dreams
7. Song To Woody
8. Third Rate Romance
9. Hey Porter
10. Passing Through

Anniversary Special Volume Two (1976)
11. Rita Ballou
12. Harbour for My Soul
13. I've Got a Thing About You Baby
14. Instrumental in D Major
15. Every Man Has Got His Own Price
16. Harley
17. Broad River
18. Fairytale
19. I Still Miss Someone
20. Someday My Ship Will Sail

Exact Audio Copy V1.3 from 2. September 2016

EAC extraction logfile from 19. January 2018, 21:58

The Earl Scruggs Review / Anniversary Special Volume 1 & 2

Used drive : TSSTcorpCDDVDW SH-224BB Adapter: 1 ID: 0

Read mode : Secure
Utilize accurate stream : Yes
Defeat audio cache : Yes
Make use of C2 pointers : No

Read offset correction : 6
Overread into Lead-In and Lead-Out : No
Fill up missing offset samples with silence : Yes
Delete leading and trailing silent blocks : No
Null samples used in CRC calculations : Yes
Used interface : Native Win32 interface for Win NT & 2000
Gap handling : Appended to previous track

Used output format : User Defined Encoder
Selected bitrate : 768 kBit/s
Quality : High
Add ID3 tag : No
Command line compressor : C:\Program Files (x86)\Exact Audio Copy\Flac\flac.exe
Additional command line options : -8 -V -T "ARTIST=%artist%" -T "TITLE=%title%" -T "ALBUM=%albumtitle%" -T "DATE=%year%" -T "TRACKNUMBER=%tracknr%" -T "TOTALTRACKS=%numtracks%" -T "GENRE=%genre%" -T "ALBUMARTIST=%albumartist%" -T "ALBUM ARTIST=%albumartist%" -T "COMMENT=EAC Secure Mode, Test & Copy, AccurateRip, FLAC -8" %source%


TOC of the extracted CD

Track | Start | Length | Start sector | End sector
––––––––––––––––––––––––––––-
1 | 0:00.00 | 2:30.61 | 0 | 11310
2 | 2:30.61 | 2:21.55 | 11311 | 21940
3 | 4:52.41 | 2:32.70 | 21941 | 33410
4 | 7:25.36 | 5:00.69 | 33411 | 55979
5 | 12:26.30 | 3:41.43 | 55980 | 72597
6 | 16:07.73 | 4:59.46 | 72598 | 95068
7 | 21:07.44 | 3:06.42 | 95069 | 109060
8 | 24:14.11 | 3:27.39 | 109061 | 124624
9 | 27:41.50 | 2:57.46 | 124625 | 137945
10 | 30:39.21 | 5:06.59 | 137946 | 160954
11 | 35:46.05 | 4:00.40 | 160955 | 178994
12 | 39:46.45 | 3:40.23 | 178995 | 195517
13 | 43:26.68 | 2:54.38 | 195518 | 208605
14 | 46:21.31 | 2:04.36 | 208606 | 217941
15 | 48:25.67 | 2:26.09 | 217942 | 228900
16 | 50:52.01 | 3:45.18 | 228901 | 245793
17 | 54:37.19 | 2:45.67 | 245794 | 258235
18 | 57:23.11 | 2:12.62 | 258236 | 268197
19 | 59:35.73 | 3:27.56 | 268198 | 283778
20 | 63:03.54 | 3:45.47 | 283779 | 300700


Track 1

Filename C:\Rips\The Earl Scruggs Revue - Anniversary Special 1 & 2 (2008) [FLAC]\01 - Banjo Man.wav

Pre-gap length 0:00:02.00

Peak level 100.0 %
Extraction speed 1.6 X
Track quality 100.0 %
Test CRC DD3BCCF8
Copy CRC DD3BCCF8
Cannot be verified as accurate (confidence 1) [8A36394C], AccurateRip returned [6AD70BCB] (AR v2)
Copy OK

Track 2

Filename C:\Rips\The Earl Scruggs Revue - Anniversary Special 1 & 2 (2008) [FLAC]\02 - The Swimming Song.wav

Peak level 100.0 %
Extraction speed 1.4 X
Track quality 99.9 %
Test CRC AA7B1FD0
Copy CRC AA7B1FD0
Cannot be verified as accurate (confidence 1) [53022A29], AccurateRip returned [FD0911BA] (AR v2)
Copy OK

Track 3

Filename C:\Rips\The Earl Scruggs Revue - Anniversary Special 1 & 2 (2008) [FLAC]\03 - Gospel Ship.wav

Peak level 100.0 %
Extraction speed 1.8 X
Track quality 100.0 %
Test CRC C2B86E01
Copy CRC C2B86E01
Cannot be verified as accurate (confidence 1) [1F389C3E], AccurateRip returned [C36716CB] (AR v2)
Copy OK

Track 4

Filename C:\Rips\The Earl Scruggs Revue - Anniversary Special 1 & 2 (2008) [FLAC]\04 - Bleeker Street Rag.wav

Pre-gap length 0:00:00.38

Peak level 100.0 %
Extraction speed 2.0 X
Track quality 100.0 %
Test CRC 9DF4CB64
Copy CRC 9DF4CB64
Cannot be verified as accurate (confidence 1) [BFC2630D], AccurateRip returned [94715E7C] (AR v2)
Copy OK

Track 5

Filename C:\Rips\The Earl Scruggs Revue - Anniversary Special 1 & 2 (2008) [FLAC]\05 - Royal Majesty.wav

Peak level 100.0 %
Extraction speed 2.2 X
Track quality 100.0 %
Test CRC B7CA0930
Copy CRC B7CA0930
Cannot be verified as accurate (confidence 1) [5FC3DB21], AccurateRip returned [37FE87C6] (AR v2)
Copy OK

Track 6

Filename C:\Rips\The Earl Scruggs Revue - Anniversary Special 1 & 2 (2008) [FLAC]\06 - Rollin' In My Dreams.wav

Pre-gap length 0:00:00.67

Peak level 100.0 %
Extraction speed 2.4 X
Track quality 100.0 %
Test CRC 269E4EA0
Copy CRC 269E4EA0
Cannot be verified as accurate (confidence 1) [6D8EDEAD], AccurateRip returned [7E180535] (AR v2)
Copy OK

Track 7

Filename C:\Rips\The Earl Scruggs Revue - Anniversary Special 1 & 2 (2008) [FLAC]\07 - Song To Woody.wav

Peak level 70.5 %
Extraction speed 1.3 X
Track quality 99.9 %
Test CRC B1199CCB
Copy CRC B1199CCB
Cannot be verified as accurate (confidence 1) [1473278D], AccurateRip returned [3098B611] (AR v2)
Copy OK

Track 8

Filename C:\Rips\The Earl Scruggs Revue - Anniversary Special 1 & 2 (2008) [FLAC]\08 - Third Rate Romance.wav

Peak level 95.0 %
Extraction speed 2.5 X
Track quality 100.0 %
Test CRC E59C0C46
Copy CRC E59C0C46
Cannot be verified as accurate (confidence 1) [DDBC83DD], AccurateRip returned [8F654764] (AR v2)
Copy OK

Track 9

Filename C:\Rips\The Earl Scruggs Revue - Anniversary Special 1 & 2 (2008) [FLAC]\09 - Hey Porter.wav

Peak level 88.3 %
Extraction speed 2.0 X
Track quality 99.9 %
Test CRC DC1B5782
Copy CRC DC1B5782
Cannot be verified as accurate (confidence 1) [625049B1], AccurateRip returned [CBA557E8] (AR v2)
Copy OK

Track 10

Filename C:\Rips\The Earl Scruggs Revue - Anniversary Special 1 & 2 (2008) [FLAC]\10 - Passing Through.wav

Pre-gap length 0:00:00.04

Peak level 100.0 %
Extraction speed 2.9 X
Track quality 100.0 %
Test CRC 3D6B7645
Copy CRC 3D6B7645
Cannot be verified as accurate (confidence 1) [BDB20C8C], AccurateRip returned [704C6CB1] (AR v2)
Copy OK

Track 11

Filename C:\Rips\The Earl Scruggs Revue - Anniversary Special 1 & 2 (2008) [FLAC]\11 - Rita Ballou.wav

Pre-gap length 0:00:02.19

Peak level 87.9 %
Extraction speed 2.9 X
Track quality 100.0 %
Test CRC 3A16B994
Copy CRC 3A16B994
Cannot be verified as accurate (confidence 1) [8424C573], AccurateRip returned [01FBAE3A] (AR v2)
Copy OK

Track 12

Filename C:\Rips\The Earl Scruggs Revue - Anniversary Special 1 & 2 (2008) [FLAC]\12 - Harbor For My Soul.wav

Pre-gap length 0:00:00.32

Peak level 100.0 %
Extraction speed 3.0 X
Track quality 100.0 %
Test CRC 2046C8FA
Copy CRC 2046C8FA
Cannot be verified as accurate (confidence 1) [B136D462], AccurateRip returned [FC8734F0] (AR v2)
Copy OK

Track 13

Filename C:\Rips\The Earl Scruggs Revue - Anniversary Special 1 & 2 (2008) [FLAC]\13 - I've Got A Thing About You Baby.wav

Pre-gap length 0:00:00.59

Peak level 100.0 %
Extraction speed 3.0 X
Track quality 100.0 %
Test CRC 69A55206
Copy CRC 69A55206
Cannot be verified as accurate (confidence 1) [37F40B3A], AccurateRip returned [E92AAE1E] (AR v2)
Copy OK

Track 14

Filename C:\Rips\The Earl Scruggs Revue - Anniversary Special 1 & 2 (2008) [FLAC]\14 - Instrumental In D Minor.wav

Pre-gap length 0:00:01.09

Peak level 87.9 %
Extraction speed 1.8 X
Track quality 99.9 %
Test CRC F2BE7C5D
Copy CRC F2BE7C5D
Cannot be verified as accurate (confidence 1) [3F25E364], AccurateRip returned [F3EFAAF2] (AR v2)
Copy OK

Track 15

Filename C:\Rips\The Earl Scruggs Revue - Anniversary Special 1 & 2 (2008) [FLAC]\15 - Every Man Has Got His Own Price.wav

Pre-gap length 0:00:00.42

Peak level 95.0 %
Extraction speed 3.0 X
Track quality 100.0 %
Test CRC 0284E3FC
Copy CRC 0284E3FC
Cannot be verified as accurate (confidence 1) [BA08E3D2], AccurateRip returned [9F174663] (AR v2)
Copy OK

Track 16

Filename C:\Rips\The Earl Scruggs Revue - Anniversary Special 1 & 2 (2008) [FLAC]\16 - Harley.wav

Pre-gap length 0:00:01.01

Peak level 96.6 %
Extraction speed 3.3 X
Track quality 100.0 %
Test CRC A8E3413D
Copy CRC A8E3413D
Cannot be verified as accurate (confidence 1) [1474FB7B], AccurateRip returned [D73D993E] (AR v2)
Copy OK

Track 17

Filename C:\Rips\The Earl Scruggs Revue - Anniversary Special 1 & 2 (2008) [FLAC]\17 - Broad River.wav

Pre-gap length 0:00:01.43

Peak level 100.0 %
Extraction speed 3.2 X
Track quality 100.0 %
Test CRC 5B4367C3
Copy CRC 5B4367C3
Cannot be verified as accurate (confidence 1) [71D46947], AccurateRip returned [FEFD392D] (AR v2)
Copy OK

Track 18

Filename C:\Rips\The Earl Scruggs Revue - Anniversary Special 1 & 2 (2008) [FLAC]\18 - Fairytale.wav

Pre-gap length 0:00:00.69

Peak level 100.0 %
Extraction speed 3.1 X
Track quality 100.0 %
Test CRC 278119AD
Copy CRC 278119AD
Cannot be verified as accurate (confidence 1) [654212EB], AccurateRip returned [A622EAC8] (AR v2)
Copy OK

Track 19

Filename C:\Rips\The Earl Scruggs Revue - Anniversary Special 1 & 2 (2008) [FLAC]\19 - I Still Miss Someone.wav

Pre-gap length 0:00:00.53

Peak level 100.0 %
Extraction speed 3.4 X
Track quality 100.0 %
Test CRC B461CC76
Copy CRC B461CC76
Cannot be verified as accurate (confidence 1) [D21AA3F4], AccurateRip returned [5BE32917] (AR v2)
Copy OK

Track 20

Filename C:\Rips\The Earl Scruggs Revue - Anniversary Special 1 & 2 (2008) [FLAC]\20 - My Ship Will Sail.wav

Pre-gap length 0:00:01.05

Peak level 100.0 %
Extraction speed 3.6 X
Track quality 100.0 %
Test CRC 385ED6FC
Copy CRC 385ED6FC
Cannot be verified as accurate (confidence 1) [126F40FB], AccurateRip returned [401198FA] (AR v2)
Copy OK


No tracks could be verified as accurate
You may have a different pressing from the one(s) in the database

No errors occurred

End of status report

–– CUETools DB Plugin V2.1.6

[CTDB TOCID: oMVgC.KZ3_tUltr4a.B_xSZOobc-] found
Submit result: oMVgC.KZ3_tUltr4a.B_xSZOobc- has been confirmed
Track | CTDB Status
1 | (6/6) Accurately ripped
2 | (6/6) Accurately ripped
3 | (6/6) Accurately ripped
4 | (6/6) Accurately ripped
5 | (6/6) Accurately ripped
6 | (6/6) Accurately ripped
7 | (6/6) Accurately ripped
8 | (6/6) Accurately ripped
9 | (6/6) Accurately ripped
10 | (6/6) Accurately ripped
11 | (6/6) Accurately ripped
12 | (6/6) Accurately ripped
13 | (6/6) Accurately ripped
14 | (6/6) Accurately ripped
15 | (6/6) Accurately ripped
16 | (6/6) Accurately ripped
17 | (6/6) Accurately ripped
18 | (6/6) Accurately ripped
19 | (6/6) Accurately ripped
20 | (6/6) Accurately ripped


==== Log checksum 68935599A231EF594FB12AFA927D4DCB8A07F5B4A6395EF584933A7661C60B34 ====


The Earl Scruggs Revue - Anniversary Special Volume One / Volume Two (1975-1976) {BGO Records BGOCD830 rel 2008}

The Earl Scruggs Revue - Anniversary Special Volume One / Volume Two (1975-1976) {BGO Records BGOCD830 rel 2008}


see also:
The Earl Scruggs Revue - Four Original Columbia Albums (2018) {2CD Set BGO Records BGOCD1295 rec 1972-1976}



===