Subcategories

Eddie Lockjaw Davis - Heavy Hitter (1979) {32 Jazz 32057 rel 1998}

Posted By: ruskaval
Eddie Lockjaw Davis - Heavy Hitter (1979) {32 Jazz 32057 rel 1998}

Eddie Lockjaw Davis - Heavy Hitter (1979) {32 Jazz 32057 rel 1998}
EAC rip (secure mode) | FLAC (tracks)+CUE+LOG -> 224 Mb | MP3 @320 -> 88 Mb
Full Artwork @ 300 dpi (jpg) -> 20 Mb | 5% repair rar
© 1979, 1998 32 Jazz | 32057
Jazz / Hard Bop / Soul Jazz / Saxophone

Eddie "Lockjaw" Davis recorded many albums during the 15 years before his death in 1986; virtually all are recommended. This album is a little-known quartet set with pianist Albert Dailey, bassist George Duvivier and drummer Victor Lewis, Davis' only recording for Muse. Lockjaw had never worked with Dailey or Lewis before but they have little difficulty interpreting the tough-toned tenor's usual repertoire. Highlights of the fine straighathead set include "Just One of Those Things," "Secret Love" and "You Stepped Out of a Dream."

Musicians
Saxophone Eddie "Lockjaw" Davis
Piano Albert Dailey
Bass George Duvivier
Drums Victor Lewis

Tracks
01 When Your Lover Has Gone 04:33
02 Just One Of Those Things 04:16
03 Medley 08:24
Old Folks
Out Of Nowhere
04 Secret Love 05:40
05 Comin' Home Baby 06:01
06 You Stepped Out Of A Dream 03:05
07 Jim Dog 05:02

Exact Audio Copy V1.1 from 23. June 2015

EAC extraction logfile from 15. December 2018, 13:34

Eddie Lockjaw Davis / The Heavy Hitter

Used drive : MATSHITADVD+-RW SW830 Adapter: 1 ID: 0

Read mode : Secure
Utilize accurate stream : Yes
Defeat audio cache : Yes
Make use of C2 pointers : No

Read offset correction : 6
Overread into Lead-In and Lead-Out : No
Fill up missing offset samples with silence : Yes
Delete leading and trailing silent blocks : No
Null samples used in CRC calculations : Yes
Used interface : Native Win32 interface for Win NT & 2000
Gap handling : Appended to previous track

Used output format : User Defined Encoder
Selected bitrate : 896 kBit/s
Quality : High
Add ID3 tag : No
Command line compressor : C:\Program Files (x86)\Exact Audio Copy\Flac\flac.exe
Additional command line options : -8 -V -T "ARTIST=%artist%" -T "TITLE=%title%" -T "ALBUM=%albumtitle%" -T "DATE=%year%" -T "TRACKNUMBER=%tracknr%" -T "TOTALTRACKS=%numtracks%" -T "GENRE=%genre%" -T "ALBUMARTIST=%albumartist%" -T "ALBUM ARTIST=%albumartist%" -T "COMMENT=EAC Secure Mode, Test & Copy, AccurateRip, FLAC -8" %source%


TOC of the extracted CD

Track | Start | Length | Start sector | End sector
––––––––––––––––––––––––––––-
1 | 0:00.00 | 4:33.15 | 0 | 20489
2 | 4:33.15 | 4:16.22 | 20490 | 39711
3 | 8:49.37 | 8:24.10 | 39712 | 77521
4 | 17:13.47 | 5:39.60 | 77522 | 103006
5 | 22:53.32 | 6:01.33 | 103007 | 130114
6 | 28:54.65 | 3:04.62 | 130115 | 143976
7 | 31:59.52 | 5:01.73 | 143977 | 166624


Track 1

Filename G:\New Rips\Eddie Lockjaw Davis - The Heavy Hitter (1979) [FLAC]\01 - When Your Lover Has Gone.wav

Pre-gap length 0:00:02.00

Peak level 99.3 %
Extraction speed 3.8 X
Track quality 99.9 %
Test CRC 9BA7556C
Copy CRC 9BA7556C
Accurately ripped (confidence 4) [8500C79E] (AR v2)
Copy OK

Track 2

Filename G:\New Rips\Eddie Lockjaw Davis - The Heavy Hitter (1979) [FLAC]\02 - Just One Of Those Things.wav

Peak level 99.4 %
Extraction speed 4.1 X
Track quality 99.9 %
Test CRC B8F20649
Copy CRC B8F20649
Accurately ripped (confidence 4) [4F988AA3] (AR v2)
Copy OK

Track 3

Filename G:\New Rips\Eddie Lockjaw Davis - The Heavy Hitter (1979) [FLAC]\03 - Medley.wav

Pre-gap length 0:00:02.60

Peak level 98.6 %
Extraction speed 6.0 X
Track quality 100.0 %
Test CRC C828894F
Copy CRC C828894F
Accurately ripped (confidence 4) [9DBD5678] (AR v2)
Copy OK

Track 4

Filename G:\New Rips\Eddie Lockjaw Davis - The Heavy Hitter (1979) [FLAC]\04 - Secret Love.wav

Pre-gap length 0:00:02.60

Peak level 98.1 %
Extraction speed 6.4 X
Track quality 100.0 %
Test CRC 3F5E4EFF
Copy CRC 3F5E4EFF
Accurately ripped (confidence 4) [75A32195] (AR v2)
Copy OK

Track 5

Filename G:\New Rips\Eddie Lockjaw Davis - The Heavy Hitter (1979) [FLAC]\05 - Comin Home Baby.wav

Peak level 99.4 %
Extraction speed 6.6 X
Track quality 100.0 %
Test CRC F527940A
Copy CRC F527940A
Accurately ripped (confidence 4) [AD8907F5] (AR v2)
Copy OK

Track 6

Filename G:\New Rips\Eddie Lockjaw Davis - The Heavy Hitter (1979) [FLAC]\06 - You Stepped Out Of A Dream.wav

Pre-gap length 0:00:02.60

Peak level 97.1 %
Extraction speed 6.7 X
Track quality 100.0 %
Test CRC 99E9F4FF
Copy CRC 99E9F4FF
Accurately ripped (confidence 4) [BA517FAD] (AR v2)
Copy OK

Track 7

Filename G:\New Rips\Eddie Lockjaw Davis - The Heavy Hitter (1979) [FLAC]\07 - Jim Dog.wav

Peak level 99.3 %
Extraction speed 7.5 X
Track quality 100.0 %
Test CRC 791D656E
Copy CRC 791D656E
Accurately ripped (confidence 4) [76AB9796] (AR v2)
Copy OK


All tracks accurately ripped

No errors occurred

End of status report

–– CUETools DB Plugin V2.1.6

[CTDB TOCID: evPG3CsXqIKU0hylvhKCv4zu2Pk-] found
Submit result: evPG3CsXqIKU0hylvhKCv4zu2Pk- has been confirmed
Track | CTDB Status
1 | (11/11) Accurately ripped
2 | (11/11) Accurately ripped
3 | (11/11) Accurately ripped
4 | (11/11) Accurately ripped
5 | (11/11) Accurately ripped
6 | (11/11) Accurately ripped
7 | (11/11) Accurately ripped


==== Log checksum 73315EE8135063D7C7E32CA0E3DEC126588070606E5C2B946452515F739EE7AE ====


Eddie Lockjaw Davis - Heavy Hitter (1979) {32 Jazz 32057 rel 1998}

Eddie Lockjaw Davis - Heavy Hitter (1979) {32 Jazz 32057 rel 1998}



===