Subcategories

Tiziano Ferro - Nessuno è Solo (2006)

Posted By: edi1967
Tiziano Ferro - Nessuno è Solo (2006)

Tiziano Ferro - Nessuno è Solo (2006)
EAC Rip | FLAC (image) + LOG, No Cue | 311 Mb + 3% recovery
Mp3 @ 320 Kbps | 132 MB + 3% recovery
1CD | 11+Bonus Tracks | 00:56:13 | Cover: Front, Back, Booklet
Genre: Pop | Label: EMI

Nessuno è solo è il 3° album ufficiale del cantante italiano Tiziano Ferro, pubblicato il 23 giugno 2006. L'album viene pubblicato lingua spagnola con il nome Nadie esta solo. In seguito all'album parte la tournée Nessuno è solo Tour 2007. L'album è il seguito di Rosso relativo, pubblicato nel 2001, e di 111, datato 2003, e segna un leggero distacco rispetto ai precedenti, con brani che ricordano vagamente la disco-music degli anni ottanta, come ad esempio il singolo di lancio Stop! Dimentica. All'interno del disco si trovano anche canzoni molto più vicine al pop melodico, come ad esempio Ed ero contentissimo.

Il disco contiene anche un duetto con il cantante Biagio Antonacci, nel brano Baciano le donne.

Il brano Ti scatterò una foto è la colonna sonora del film Ho voglia di te, tratto dal romanzo omonimo di Federico Moccia. Nel brano E Raffaella è mia il cantante immagina di possedere, per un solo giorno, la celebre soubrette italiana Raffaella Carrà e di ammirarla e sentirla cantare sotto l'invidia di tutto il vicinato.

La canzone Mio fratello è dedicata al fratello minore del cantante, Flavio, di 11 anni più piccolo di lui, mentre Già ti guarda Alice è dedicata alla piccola cuginetta.
Alla fine dell'album è presente una ghost track nella quale si sente la voce di Tiziano Ferro all'età di 7 anni cantare delle canzoni scritte da lui stesso. La versione speciale fu edita il 29 giugno 2008, nella sua città natale (Latina).

L'album ha venduto in tutto il mondo oltre 1.500.000 di copie. Notevole è stato soprattutto il successo in Italia, dove il disco è rimasto in classifica per 100 settimane, equivalenti ad 1 anno e 11 mesi, conquistando 5 dischi di platino.

Il 1 dicembre 2007, Tiziano Ferro ha ricevuto inoltre il disco di diamante per le oltre 400.000 copie vendute in Italia di Nessuno è solo. La consegna è avvenuta durante la partecipazione del cantante alla trasmissione Amici di Maria De Filippi.

Tiziano Ferro - Nessuno è Solo (2006)


English
Tiziano Ferro (born February 21, 1980 in Latina) is an Italian Latin pop singer. Ferro has sold more than eight million albums worldwide, and has won a Latin Grammy and a Europe MTV Music Award.
In 1997, Ferro participated in the Sanremo Music Festival but did not make it past the first week of selections. In 1998, he was among the 12 finalists, and was discovered by two producers, Alberto Salerno and Mara Maionchi.

Ferro's 2001 debut album was entitled Rosso Relativo (Spanish: Rojo Relativo). In late 2003, Ferro released his second album, 111 Centoundici. In 2004, he released his first English-language single, "Universal Prayer," in Europe. The single was recorded to promote the 2004 Olympic Games in Athens, Greece. The song is a duet with British R&B singer Jamelia. In that same year, at the 2004 MTV Europe Music Awards held in Rome, he won Best Italian Act and performed his song "Sere Nere." He also made a guest appearance in the first season of the hit Mexican TV drama Rebelde, and collaborated with Mexican recording singer Myriam on the theme "Dime tú" from her second studio album, Myriam.

In 2006, his third studio album Nessuno è Solo was released. Nessuno è Solo debuted at number one in Italy and Argentina, #10 in Chile, and #11 in Spain. The album was certified triple platinum. On March 25, 2007, Ferro was invited to perform at the celebration of Radio Italia's 25th anniversary.

Ferro released his newest album, titled Alla Mia Età, in 2008.

Album Nessuno è Solo was released in 44 countries. Features Baciano le donne, a collaboration with Italian singer Biagio Antonacci. The album has sold over 1.5 million copies worldwide. International version of the Italian Pop star's 2006 release features hidden bonus tracks including 'Stop Domentica'. Often called the Italian answer to Craig David, this is his first album in three years, and his first album since the massive success of his 2003 album 111.Ferro composed all of the tracks himself, inspired by his experiences traveling all over the glove while promoting his previous release.

Tiziano Ferro - Nessuno è Solo (2006)


Exact Audio Copy V1.0 beta 2 from 29. April 2011

EAC extraction logfile from 15. June 2011, 12:18

Tiziano Ferro / Nessuno e solo

Used drive : PIONEER DVD-RW DVR-111D Adapter: 1 ID: 0

Read mode : Secure
Utilize accurate stream : Yes
Defeat audio cache : Yes
Make use of C2 pointers : No

Read offset correction : 48
Overread into Lead-In and Lead-Out : No
Fill up missing offset samples with silence : Yes
Delete leading and trailing silent blocks : No
Null samples used in CRC calculations : Yes
Used interface : Native Win32 interface for Win NT & 2000

Used output format : User Defined Encoder
Selected bitrate : 1024 kBit/s
Quality : High
Add ID3 tag : No
Command line compressor : C:\Programmi\Exact Audio Copy\FLAC\FLAC.EXE
Additional command line options : -6 -V -T "ARTIST=%artist%" -T "TITLE=%title%" -T "ALBUM=%albumtitle%" -T "DATE=%year%" -T "TRACKNUMBER=%tracknr%" -T "GENRE=%genre%" -T "COMMENT=%comment%" -T "BAND=%albuminterpret%" -T "COMPOSER=%composer%" %haslyrics%–ta


TOC of the extracted CD

Track | Start | Length | Start sector | End sector
––––––––––––––––––––––––––––––––––-
1 | 0:00.00 | 4:40.11 | 0 | 21010
2 | 4:40.11 | 4:32.71 | 21011 | 41481
3 | 9:13.07 | 4:12.62 | 41482 | 60443
4 | 13:25.69 | 3:48.60 | 60444 | 77603
5 | 17:14.54 | 3:42.55 | 77604 | 94308
6 | 20:57.34 | 3:43.20 | 94309 | 111053
7 | 24:40.54 | 3:15.33 | 111054 | 125711
8 | 27:56.12 | 3:59.51 | 125712 | 143687
9 | 31:55.63 | 3:08.50 | 143688 | 157837
10 | 35:04.38 | 4:07.56 | 157838 | 176418
11 | 39:12.19 | 16:40.57 | 176419 | 251475
12 | 58:25.01 | 7:51.73 | 262876 | 298273

Range status and errors

Selected range

Filename C:\Documents and Settings\GrandeCapo\Tiziano Ferro - Nessuno e solo.wav

Peak level 100.0 %
Extraction speed 1.9 X
Range quality 100.0 %
Test CRC 126B2C7D
Copy CRC 126B2C7D
Copy OK

No errors occurred


AccurateRip summary

Track 1 not present in database
Track 2 not present in database
Track 3 not present in database
Track 4 not present in database
Track 5 not present in database
Track 6 not present in database
Track 7 not present in database
Track 8 not present in database
Track 9 not present in database
Track 10 not present in database
Track 11 not present in database
Track 12 not present in database


None of the tracks are present in the AccurateRip database

End of status report


Tracklist:

01. Tarantola D'africa (4:42)
02. Ti Scattero Una Foto (4:35)
03. Ed Ero Contentissimo (4:15)
04. Stop! Dimentica (3:51)
05. E Fuori E Buio (3:44)
06. Salutandotiaffogo (3:45)
07. E Raffaella E Mia (3:17)
08. La Paura Che.. (4:01)
09. Baciano Le Donne (Con Biagio Antonacci) (3:10)
10. Gia Ti Guarda Alice (4:09)
11. Mio Fratello (inc. hidden track) (16:40)


Tiziano Ferro - Nessuno è Solo (2006)



Tiziano Ferro - Nessuno è Solo (2006)
Folder Link


Tiziano Ferro - Nessuno è Solo (2006)
Folder Link



Password : crazy


Please DO NOT MIRROR

If you'll find that my links are dead please let me know through the Private Messages.

>>> Visit edi1967 Blog Here <<<