Subcategories

Fabri Fibra - Controcultura (2010)

Posted By: edi1967
Fabri Fibra - Controcultura (2010)

Fabri Fibra - Controcultura (2010)
EAC Rip | FLAC (image) + CUE + LOG | 563 Mb + 3% recovery
Mp3 @ 320 Kbps | 241 MB + 3% recovery
1CD | 18 Tracks | 00:67:44 | Full scans
Genre: Rap, Hip Hop | Label: Universal

Controcultura è il titolo del sesto album da solista del rapper italiano Fabri Fibra, pubblicato oggi 7 settembre 2010 che contiene diciotto tracce inedite. Il primo singolo estratto dal disco è stato Vip in Trip, reso disponibile per il download digitale e per l'airplay radiofonico a partire dal 23 luglio 2010. L'album contiene collaborazioni con con Marracash, Dargen D'Amico, Entics, Simona Barbieri e Dj Double S.

English
Controcultura is the sixth solo album of Italian rapper Fabri Fibra, released today September 7, 2010 which contains eighteen unreleased tracks. The first single from the disc was in the VIP Trip, made ​​available for digital download and radio airplay from the July 23, 2010. The album contains collaborations with with Marracash, Dargen D'Amico, Entics, Simona Barbieri and DJ Double S.

Fabri Fibra - Controcultura (2010)


Exact Audio Copy V0.99 prebeta 5 from 4. May 2009

EAC extraction logfile from 12. February 2011, 20:42

Fabri Fibra / Controcultura

Used drive : HL-DT-STDVD-RAM GH22NP20 Adapter: 1 ID: 1

Read mode : Secure
Utilize accurate stream : Yes
Defeat audio cache : Yes
Make use of C2 pointers : No

Read offset correction : 102
Overread into Lead-In and Lead-Out : No
Fill up missing offset samples with silence : Yes
Delete leading and trailing silent blocks : No
Null samples used in CRC calculations : Yes
Used interface : Installed external ASPI interface
Gap handling : Appended to previous track

Used output format : User Defined Encoder
Selected bitrate : 128 kBit/s
Quality : High
Add ID3 tag : No
Command line compressor : C:\Programmi\Exact Audio Copy\Flac\flac.exe
Additional command line options : -8 -V -T "ARTIST=%a" -T "TITLE=%t" -T "ALBUM=%g" -T "DATE=%y" -T "TRACKNUMBER=%n" -T "TOTALTRACKS=%x" -T "GENRE=%m" -T "ALBUMARTIST=%v" -T "ALBUM ARTIST=%v" %s


TOC of the extracted CD

Track | Start | Length | Start sector | End sector
––––––––––––––––––––––––––––-
1 | 0:00.00 | 3:11.01 | 0 | 14325
2 | 3:11.01 | 3:50.33 | 14326 | 31608
3 | 7:01.34 | 3:27.63 | 31609 | 47196
4 | 10:29.22 | 3:14.03 | 47197 | 61749
5 | 13:43.25 | 3:38.54 | 61750 | 78153
6 | 17:22.04 | 3:42.41 | 78154 | 94844
7 | 21:04.45 | 4:35.70 | 94845 | 115539
8 | 25:40.40 | 3:56.16 | 115540 | 133255
9 | 29:36.56 | 3:20.53 | 133256 | 148308
10 | 32:57.34 | 4:19.39 | 148309 | 167772
11 | 37:16.73 | 4:00.06 | 167773 | 185778
12 | 41:17.04 | 3:12.66 | 185779 | 200244
13 | 44:29.70 | 4:22.23 | 200245 | 219917
14 | 48:52.18 | 3:46.14 | 219918 | 236881
15 | 52:38.32 | 3:02.44 | 236882 | 250575
16 | 55:41.01 | 4:01.43 | 250576 | 268693
17 | 59:42.44 | 4:04.02 | 268694 | 286995
18 | 63:46.46 | 4:08.46 | 286996 | 305641


Track 1

Filename C:\CD Rip\01 - 6791.wav

Pre-gap length 0:00:02.00

Peak level 98.8 %
Track quality 100.0 %
Test CRC A9FAFD36
Copy CRC A9FAFD36
Track not present in AccurateRip database
Copy OK

Track 2

Filename C:\CD Rip\02 - Escort.wav

Peak level 98.9 %
Track quality 99.9 %
Test CRC 201385EF
Copy CRC 201385EF
Track not present in AccurateRip database
Copy OK

Track 3

Filename C:\CD Rip\03 - [].wav

Peak level 98.8 %
Track quality 100.0 %
Test CRC E45B82A8
Copy CRC E45B82A8
Track not present in AccurateRip database
Copy OK

Track 4

Filename C:\CD Rip\04 - Double Trouble.wav

Peak level 98.8 %
Track quality 100.0 %
Test CRC BA6E37D6
Copy CRC BA6E37D6
Track not present in AccurateRip database
Copy OK

Track 5

Filename C:\CD Rip\05 - +-.wav

Peak level 98.8 %
Track quality 100.0 %
Test CRC 0D98EBC6
Copy CRC 0D98EBC6
Track not present in AccurateRip database
Copy OK

Track 6

Filename C:\CD Rip\06 - Spara Al Diavolo.wav

Peak level 91.2 %
Track quality 100.0 %
Test CRC CB493747
Copy CRC CB493747
Track not present in AccurateRip database
Copy OK

Track 7

Filename C:\CD Rip\07 - Controcultura.wav

Peak level 98.8 %
Track quality 99.9 %
Test CRC 3267283B
Copy CRC 3267283B
Track not present in AccurateRip database
Copy OK

Track 8

Filename C:\CD Rip\08 - Vip In Trip.wav

Peak level 100.0 %
Track quality 100.0 %
Test CRC 8A9FAC29
Copy CRC 8A9FAC29
Track not present in AccurateRip database
Copy OK

Track 9

Filename C:\CD Rip\09 - Qualcuno Normale.wav

Peak level 100.0 %
Track quality 100.0 %
Test CRC FE4484F2
Copy CRC FE4484F2
Track not present in AccurateRip database
Copy OK

Track 10

Filename C:\CD Rip\10 - Insensibile.wav

Peak level 98.8 %
Track quality 100.0 %
Test CRC B6CBEDA8
Copy CRC B6CBEDA8
Track not present in AccurateRip database
Copy OK

Track 11

Filename C:\CD Rip\11 - Tranne Te.wav

Peak level 100.0 %
Track quality 99.9 %
Test CRC 2DE93C62
Copy CRC 2DE93C62
Track not present in AccurateRip database
Copy OK

Track 12

Filename C:\CD Rip\12 - Non Potete Capire.wav

Peak level 98.8 %
Track quality 100.0 %
Test CRC 4E6E6064
Copy CRC 4E6E6064
Track not present in AccurateRip database
Copy OK

Track 13

Filename C:\CD Rip\13 - 3 Parole.wav

Peak level 93.3 %
Track quality 99.9 %
Test CRC 0C816EC2
Copy CRC 0C816EC2
Track not present in AccurateRip database
Copy OK

Track 14

Filename C:\CD Rip\14 - Rivelazione.wav

Peak level 98.8 %
Track quality 100.0 %
Test CRC E97D6ACE
Copy CRC E97D6ACE
Track not present in AccurateRip database
Copy OK

Track 15

Filename C:\CD Rip\15 - Troppo Famoso.wav

Peak level 98.8 %
Track quality 100.0 %
Test CRC E9EE0028
Copy CRC E9EE0028
Track not present in AccurateRip database
Copy OK

Track 16

Filename C:\CD Rip\16 - Le Donne.wav

Peak level 98.8 %
Track quality 100.0 %
Test CRC 2FE448D4
Copy CRC 2FE448D4
Track not present in AccurateRip database
Copy OK

Track 17

Filename C:\CD Rip\17 - In Alto.wav

Peak level 98.8 %
Track quality 100.0 %
Test CRC 60849E81
Copy CRC 60849E81
Track not present in AccurateRip database
Copy OK

Track 18

Filename C:\CD Rip\18 - La Fretta.wav

Peak level 98.8 %
Track quality 100.0 %
Test CRC D6633B0C
Copy CRC D6633B0C
Track not present in AccurateRip database
Copy OK


None of the tracks are present in the AccurateRip database

No errors occurred

End of status report


== Tracce ==

01. 6791
02. Escort
03. ≠
04. Double Trouble
05. +-
06. Spara Al Diavolo
07. Controcultura
08. Vip in Trip
09. Qualcuno Normale (feat. Marracash)
10. Insensibile (feat. Dargen D'Amico)
11. Tranne Te
12. Non Potete Capire
13. 3 Parole
14. Rivelazione
15. Troppo Famoso (feat. Entics)
16. Le Donne
17. In Alto (feat. Simona Barbieri)
18. La Fretta (feat. Dj Double S)


Fabri Fibra - Controcultura (2010)



Fabri Fibra - Controcultura (2010)

Folder Link


Fabri Fibra - Controcultura (2010)

Folder Link


Password: crazy


Please DO NOT MIRROR

If you'll find that my links are dead please let me know through the Private Messages.

>>> Visit edi1967 Blog Here <<<