Tags
Language
Tags

Eleni Karaindrou - David (2016) {ECM New Series 2221}

Posted By: ruskaval
Eleni Karaindrou - David (2016) {ECM New Series 2221}

Eleni Karaindrou - David (2016) {ECM New Series 2221}
EAC rip (secure mode) | FLAC (tracks)+CUE+LOG -> 211 Mb | MP3 @320 -> 103 Mb
Full Artwork @ 300 dpi (jpg) -> 11 Mb | 5% repair rar
© 2016 ECM Records | ECM New Series 2221
Classical / Contemporary Classics / Choral

The stage cantata David features Eleni Karaindrou’s music for a unique piece of Aegean drama, a verse play with words by an unknown 18th century poet from the island of Chios. Its text (first published only in 1979), invites a musical response and Greek composer Karaindrou rises splendidly to the challenge, imaginatively moving between past and present in her settings for mezzo-soprano and baritone singers, instrumental soloists, choir and orchestra.

Kim Kashkashian’s evocative viola against strings may trigger associations with Karaindrou’s acclaimed writing for Ulysses’ Gaze. The music also draws inspiration from the world of baroque opera as singers Irini Karagianni and Tassis Christoyannopoulos are brought to the foreground. Karaindrou’s David is a work of changing music colours . Recorded live at the Athens Megaron, it was edited and mixed by Manfred Eicher and Nikos Espialdis for CD release.
Eleni Karaindrou - David (2016) {ECM New Series 2221}


Personnel:
Kim Kashkashian Viola
Eleni Karaindrou Ensemble
Camerata Orchestra
Alexandros Myrat
Conductor

Eleni Karaindrou - David (2016) {ECM New Series 2221}


tracklist:
01 - Overture
02 - Repentance
03 - Compassion
04 - Devils
05 - David's Entrance
06 - The Good Things in Life
07 - When I see
08 - David's Lament
09 - Repentance, Var.
10 - Psaltes
11 - Procession
12 - Angel
13 - Finale

Exact Audio Copy V1.1 from 23. June 2015

EAC extraction logfile from 13. December 2016, 7:50

Eleni Karaindrou / David

Used drive : Optiarc DVD RW AD-7240S Adapter: 1 ID: 0

Read mode : Secure
Utilize accurate stream : Yes
Defeat audio cache : Yes
Make use of C2 pointers : No

Read offset correction : 48
Overread into Lead-In and Lead-Out : No
Fill up missing offset samples with silence : Yes
Delete leading and trailing silent blocks : No
Null samples used in CRC calculations : Yes
Used interface : Native Win32 interface for Win NT & 2000
Gap handling : Appended to previous track

Used output format : User Defined Encoder
Selected bitrate : 768 kBit/s
Quality : High
Add ID3 tag : No
Command line compressor : C:\Program Files\Exact Audio Copy\Flac\flac.exe
Additional command line options : -8 -V -T "ARTIST=%artist%" -T "TITLE=%title%" -T "ALBUM=%albumtitle%" -T "DATE=%year%" -T "TRACKNUMBER=%tracknr%" -T "TOTALTRACKS=%numtracks%" -T "GENRE=%genre%" -T "ALBUMARTIST=%albumartist%" -T "ALBUM ARTIST=%albumartist%" -T "COMMENT=EAC Secure Mode, Test & Copy, AccurateRip, FLAC -8" %source%


TOC of the extracted CD

Track | Start | Length | Start sector | End sector
––––––––––––––––––––––––––––-
1 | 0:00.00 | 4:13.49 | 0 | 19023
2 | 4:13.49 | 1:21.58 | 19024 | 25156
3 | 5:35.32 | 1:05.07 | 25157 | 30038
4 | 6:40.39 | 4:40.51 | 30039 | 51089
5 | 11:21.15 | 1:52.00 | 51090 | 59489
6 | 13:13.15 | 3:54.44 | 59490 | 77083
7 | 17:07.59 | 5:44.45 | 77084 | 102928
8 | 22:52.29 | 7:43.37 | 102929 | 137690
9 | 30:35.66 | 1:21.45 | 137691 | 143810
10 | 31:57.36 | 2:40.39 | 143811 | 155849
11 | 34:38.00 | 2:24.26 | 155850 | 166675
12 | 37:02.26 | 2:07.30 | 166676 | 176230
13 | 39:09.56 | 4:54.23 | 176231 | 198303


Track 1

Filename E:\01 - Overture.wav

Pre-gap length 0:00:02.00

Peak level 35.9 %
Extraction speed 2.1 X
Track quality 99.9 %
Test CRC 77991D43
Copy CRC 77991D43
Track not present in AccurateRip database
Copy OK

Track 2

Filename E:\02 - Repentance.wav

Pre-gap length 0:00:00.02

Peak level 21.7 %
Extraction speed 2.0 X
Track quality 100.0 %
Test CRC FB70EA07
Copy CRC FB70EA07
Track not present in AccurateRip database
Copy OK

Track 3

Filename E:\03 - Compassion.wav

Pre-gap length 0:00:00.01

Peak level 32.7 %
Extraction speed 1.4 X
Track quality 99.8 %
Test CRC 4261FB85
Copy CRC 4261FB85
Track not present in AccurateRip database
Copy OK

Track 4

Filename E:\04 - Devils.wav

Pre-gap length 0:00:00.02

Peak level 86.0 %
Extraction speed 2.8 X
Track quality 100.0 %
Test CRC 30B671BA
Copy CRC 30B671BA
Track not present in AccurateRip database
Copy OK

Track 5

Filename E:\05 - David's Entrance.wav

Pre-gap length 0:00:00.01

Peak level 45.2 %
Extraction speed 2.6 X
Track quality 100.0 %
Test CRC 19D0364A
Copy CRC 19D0364A
Track not present in AccurateRip database
Copy OK

Track 6

Filename E:\06 - The Good Things in Life.wav

Pre-gap length 0:00:00.02

Peak level 44.1 %
Extraction speed 3.0 X
Track quality 100.0 %
Test CRC AA54233B
Copy CRC AA54233B
Track not present in AccurateRip database
Copy OK

Track 7

Filename E:\07 - When I see.wav

Pre-gap length 0:00:00.02

Peak level 67.7 %
Extraction speed 3.2 X
Track quality 99.9 %
Test CRC 0EDC5F45
Copy CRC 0EDC5F45
Track not present in AccurateRip database
Copy OK

Track 8

Filename E:\08 - David's Lament.wav

Pre-gap length 0:00:00.02

Peak level 62.5 %
Extraction speed 3.6 X
Track quality 99.9 %
Test CRC 3F49F94F
Copy CRC 3F49F94F
Track not present in AccurateRip database
Copy OK

Track 9

Filename E:\09 - Repentance, Var..wav

Pre-gap length 0:00:00.02

Peak level 21.5 %
Extraction speed 2.9 X
Track quality 100.0 %
Test CRC 0189BAF4
Copy CRC 0189BAF4
Track not present in AccurateRip database
Copy OK

Track 10

Filename E:\10 - Psaltes.wav

Pre-gap length 0:00:00.02

Peak level 16.3 %
Extraction speed 3.6 X
Track quality 100.0 %
Test CRC 639C750D
Copy CRC 639C750D
Track not present in AccurateRip database
Copy OK

Track 11

Filename E:\11 - Procession.wav

Pre-gap length 0:00:00.02

Peak level 54.0 %
Extraction speed 3.6 X
Track quality 100.0 %
Test CRC 4DCE3434
Copy CRC 4DCE3434
Track not present in AccurateRip database
Copy OK

Track 12

Filename E:\12 - Angel.wav

Pre-gap length 0:00:00.02

Peak level 45.4 %
Extraction speed 3.5 X
Track quality 100.0 %
Test CRC 75D60A7A
Copy CRC 75D60A7A
Track not present in AccurateRip database
Copy OK

Track 13

Filename E:\13 - Finale.wav

Pre-gap length 0:00:00.02

Peak level 77.3 %
Extraction speed 4.2 X
Track quality 100.0 %
Test CRC 8E05F2A6
Copy CRC 8E05F2A6
Track not present in AccurateRip database
Copy OK


None of the tracks are present in the AccurateRip database

No errors occurred

End of status report

–– CUETools DB Plugin V2.1.6

[CTDB TOCID: 5ctR5rmmpQOq75BQ716Bk46PmVk-] found
Submit result: 5ctR5rmmpQOq75BQ716Bk46PmVk- has been confirmed
Track | CTDB Status
1 | (5/6) Accurately ripped, or (1/6) differs in 79 samples @00:24:58
2 | (6/6) Accurately ripped
3 | (6/6) Accurately ripped
4 | (6/6) Accurately ripped
5 | (6/6) Accurately ripped
6 | (6/6) Accurately ripped
7 | (6/6) Accurately ripped
8 | (6/6) Accurately ripped
9 | (6/6) Accurately ripped
10 | (6/6) Accurately ripped
11 | (6/6) Accurately ripped
12 | (6/6) Accurately ripped
13 | (6/6) Accurately ripped


==== Log checksum 3D4981411A27E6E03D5A917C8383157BC9F7CBDD9FD7BBDE02946FE6220A8132 ====


Eleni Karaindrou - David (2016) {ECM New Series 2221}

Eleni Karaindrou - David (2016) {ECM New Series 2221}


All thanks goes to the original releaser!


===