Tags
Language
Tags

Flora Purim - Encounter (1976) {Milestone OJCCD-798-2 rel 2006}

Posted By: ruskaval
Flora Purim - Encounter (1976) {Milestone OJCCD-798-2 rel 2006}

Flora Purim - Encounter (1976) {Milestone OJCCD-798-2 rel 2006}
EAC rip (secure mode) | FLAC (tracks)+CUE+LOG -> 255 Mb | MP3 @320 -> 103 Mb
Full Artwork @ 300 dpi (jpg) -> 14 Mb | 5% repair rar
© 1975-76, 2006 Milestone Records / Fantasy | OJCCD-798-2 / 00025218679824
Jazz / Fusion / Brazilian Jazz

This was one of Flora Purim's finest all-around jazz recordings, and it is luckily available on CD. Purim is featured in a variety of challenging and stimulating settings: on two numbers ("Above the Rainbow" and "Tomara") with pianist McCoy Tyner; teamed up with tenor saxophonist Joe Henderson on Chick Corea's "Windows" and "Black Narcissus"; and utilizing such players as bass trombonist Raul DeSouza, keyboardists Hermeto Pascoal and George Duke, and singer Urszula Dudziak (who is heard on "Encounter") plus Flora's husband, percussionist Airto. The music is primarily group originals and finds Flora Purim in peak form. Highly recommended.
Flora Purim - Encounter (1976) {Milestone OJCCD-798-2 rel 2006}


Personnel:
Flora Purim (vocals)
Raul De Souza (bass trombone)
Joe Henderson (tenor saxophone)
McCoy Tyner (acoustic piano)
Hermeto Pascoal (electric piano, clavinet, vocals)
George Duke (Yamaha electric grand piano, ARP string ensemble synthesizer, acoustic piano)
Ron Carter (acoustic bass)
Alphonso Johnson, Byron Miller (electric bass)
Leon "Ndugu" Chancler (drums)
Airto Moreira (drums, percussions, congas)
Googie Coppola, Urszula Dudziak (vocals solos)
Hugo Fattoruso (ARP Odyssey, ARP string ensemble, Moog synthesizers)

Tracklist:
01 - Windows
02 - Latinas
03 - Uri (The Wind)
04 - Dedicated to Bruce
05 - Above the Rainbow
06 - Tomara (I Wish)
07 - Encounter
08 - Black Narcissus

Exact Audio Copy V0.99 prebeta 5 from 4. May 2009

EAC extraction logfile from 31. July 2009, 21:05

Flora Purim / Encounter

Used drive : LITE-ON CD-RW SOHR-5238S Adapter: 5 ID: 3

Read mode : Secure
Utilize accurate stream : Yes
Defeat audio cache : Yes
Make use of C2 pointers : No

Read offset correction : 6
Overread into Lead-In and Lead-Out : No
Fill up missing offset samples with silence : Yes
Delete leading and trailing silent blocks : No
Null samples used in CRC calculations : Yes
Used interface : Installed external ASPI interface
Gap handling : Appended to previous track

Used output format : Internal WAV Routines
Sample format : 44.100 Hz; 16 Bit; Stereo


TOC of the extracted CD

Track | Start | Length | Start sector | End sector
––––––––––––––––––––––––––––-
1 | 0:00.00 | 5:33.48 | 0 | 25022
2 | 5:33.48 | 3:43.20 | 25023 | 41767
3 | 9:16.68 | 8:07.60 | 41768 | 78352
4 | 17:24.53 | 4:15.67 | 78353 | 97544
5 | 21:40.45 | 3:28.05 | 97545 | 113149
6 | 25:08.50 | 4:03.10 | 113150 | 131384
7 | 29:11.60 | 7:13.15 | 131385 | 163874
8 | 36:25.00 | 6:36.10 | 163875 | 193584


Track 1

Filename F:\eac\Flora Encounter\01 - Windows.wav

Pre-gap length 0:00:02.00

Peak level 100.0 %
Track quality 100.0 %
Test CRC F9E0BE8F
Copy CRC F9E0BE8F
Cannot be verified as accurate (confidence 4) [365F97D6], AccurateRip returned [06EA01D9]
Copy OK

Track 2

Filename F:\eac\Flora Encounter\02 - Latinas.wav

Pre-gap length 0:00:00.04

Peak level 74.8 %
Track quality 100.0 %
Test CRC 210FAA51
Copy CRC 210FAA51
Cannot be verified as accurate (confidence 4) [E8B466B7], AccurateRip returned [D9C3751E]
Copy OK

Track 3

Filename F:\eac\Flora Encounter\03 - Uri (The Wind).wav

Pre-gap length 0:00:00.33

Peak level 100.0 %
Track quality 99.9 %
Test CRC C5F7C45B
Copy CRC C5F7C45B
Cannot be verified as accurate (confidence 4) [807382F4], AccurateRip returned [FD5008F2]
Copy OK

Track 4

Filename F:\eac\Flora Encounter\04 - Dedicated to Bruce.wav

Pre-gap length 0:00:00.04

Peak level 97.0 %
Track quality 100.0 %
Test CRC B75F2914
Copy CRC B75F2914
Cannot be verified as accurate (confidence 4) [EC750A94], AccurateRip returned [3951D317]
Copy OK

Track 5

Filename F:\eac\Flora Encounter\05 - Above the Rainbow.wav

Pre-gap length 0:00:02.82

Peak level 83.8 %
Track quality 100.0 %
Test CRC B2C4433C
Copy CRC B2C4433C
Cannot be verified as accurate (confidence 4) [394E209E], AccurateRip returned [67C815B9]
Copy OK

Track 6

Filename F:\eac\Flora Encounter\06 - Tomara (I Wish).wav

Peak level 71.1 %
Track quality 100.0 %
Test CRC C7A98C23
Copy CRC C7A98C23
Cannot be verified as accurate (confidence 4) [53BB88C4], AccurateRip returned [B3CF9D9A]
Copy OK

Track 7

Filename F:\eac\Flora Encounter\07 - Encounter.wav

Pre-gap length 0:00:00.26

Peak level 95.3 %
Track quality 100.0 %
Test CRC 9CED103F
Copy CRC 9CED103F
Cannot be verified as accurate (confidence 4) [DDADB3DB], AccurateRip returned [794881FF]
Copy OK

Track 8

Filename F:\eac\Flora Encounter\08 - Black Narcissus.wav

Pre-gap length 0:00:00.02

Peak level 96.0 %
Track quality 100.0 %
Test CRC A37C0CA0
Copy CRC A37C0CA0
Cannot be verified as accurate (confidence 4) [5B3908DC], AccurateRip returned [AC995592]
Copy OK


No tracks could be verified as accurate
You may have a different pressing from the one(s) in the database

No errors occurred

End of status report


Flora Purim - Encounter (1976) {Milestone OJCCD-798-2 rel 2006}

Flora Purim - Encounter (1976) {Milestone OJCCD-798-2 rel 2006}


see more Flora Purim…


===