Subcategories

Foo Fighters - Foo Fighters (FLAC)

Posted By: zeus2zeus
Foo Fighters - Foo Fighters (FLAC)

Foo Fighters - Foo Fighters
EAC Rip | FLAC tracks | cue + log + m3u | 308MB | 1% Rec. | Covers
Label: RCA Records | Alternative Rock | Release: July 4, 1995
*Source: Personal cd collection*

The Foo's classic debut album


Foo Fighters - Foo Fighters (FLAC)


Essentially a collection of solo home recordings by Dave Grohl, Foo Fighters' eponymous debut is a modest triumph. Driven by big pop melodies and distorted guitars, Foo Fighters do strongly recall Nirvana, only with a decidedly lighter approach. If Kurt Cobain's writing occasionally recalled John Lennon, Dave Grohl's songs are reminiscent of Paul McCartney — they're driven by large, instantly memorable melodies, whether it's the joyous outburst of "This Is a Call" or the gentle pop of "Big Me." That doesn't mean Grohl shies away from noise; toward the end of the record, he piles on several thrashers that make more sense as pure aggressive sound than as songs. Since he recorded the album by himself, they aren't as powerful as most band's primal sonic workouts, but the results are damn impressive for a solo musician. Nevertheless, they aren't as strong as his fully formed pop songs, and that's where the true heart of the album lies. Foo Fighters has a handful of punk-pop gems that show, given the right musicians and songwriters, the genre had not entirely become a cliché by the middle of the '90s. ~ ~ All Music Guide

Tracklist:

01. This Is a Call
02. I'll Stick Around
03. Big Me
04. Alone + Easy Target
05. Good Grief
06. Floaty
07. Weenie Beenie
08. Oh, George
09. For All the Cows
10. X-Static
11. Wattershed
12. Exhausted

Exact Audio Copy V0.99 prebeta 5 from 4. May 2009

EAC extraction logfile from 27. December 2009, 13:56

Foo Fighters / Foo Fighters

Used drive : ATAPI DVD A DH20A4H Adapter: 1 ID: 0

Read mode : Secure
Utilize accurate stream : Yes
Defeat audio cache : Yes
Make use of C2 pointers : No

Read offset correction : 6
Overread into Lead-In and Lead-Out : No
Fill up missing offset samples with silence : Yes
Delete leading and trailing silent blocks : No
Null samples used in CRC calculations : No
Used interface : Native Win32 interface for Win NT & 2000
Gap handling : Appended to previous track

Used output format : User Defined Encoder
Selected bitrate : 768 kBit/s
Quality : High
Add ID3 tag : No
Command line compressor : C:\Program Files\Exact Audio Copy\FLAC\FLAC.EXE
Additional command line options : -V -8 -T "artist=%a" -T "title=%t" -T "album=%g" -T "date=%y" -T "tracknumber=%n" -T "genre=%m" %s


TOC of the extracted CD

Track | Start | Length | Start sector | End sector
––––––––––––––––––––––––––––-
1 | 0:00.37 | 3:53.45 | 37 | 17556
2 | 3:54.07 | 3:52.68 | 17557 | 35024
3 | 7:47.00 | 2:12.60 | 35025 | 44984
4 | 9:59.60 | 4:05.22 | 44985 | 63381
5 | 14:05.07 | 4:01.25 | 63382 | 81481
6 | 18:06.32 | 4:30.00 | 81482 | 101731
7 | 22:36.32 | 2:45.60 | 101732 | 114166
8 | 25:22.17 | 3:00.48 | 114167 | 127714
9 | 28:22.65 | 3:30.00 | 127715 | 143464
10 | 31:52.65 | 4:13.10 | 143465 | 162449
11 | 36:06.00 | 2:15.40 | 162450 | 172614
12 | 38:21.40 | 5:45.22 | 172615 | 198511


Track 1

Filename C:\EAC Extraction Directory\01. Foo Fighters - This Is a Call (Foo Fighters).wav

Pre-gap length 0:00:02.37

Peak level 98.6 %
Track quality 100.0 %
Copy CRC F69806F6
Accurately ripped (confidence 200) [673CDF30]
Copy OK

Track 2

Filename C:\EAC Extraction Directory\02. Foo Fighters - I'll Stick Around (Foo Fighters).wav

Peak level 100.0 %
Track quality 100.0 %
Copy CRC 8DB4391A
Cannot be verified as accurate (confidence 200) [3C13568D], AccurateRip returned [8DA3508C]
Copy OK

Track 3

Filename C:\EAC Extraction Directory\03. Foo Fighters - Big Me (Foo Fighters).wav

Pre-gap length 0:00:00.10

Peak level 87.9 %
Track quality 100.0 %
Copy CRC 258CE808
Accurately ripped (confidence 200) [2F8BC9F5]
Copy OK

Track 4

Filename C:\EAC Extraction Directory\04. Foo Fighters - Alone + Easy Target (Foo Fighters).wav

Peak level 98.6 %
Track quality 100.0 %
Copy CRC 8AA29EEB
Accurately ripped (confidence 200) [E9578843]
Copy OK

Track 5

Filename C:\EAC Extraction Directory\05. Foo Fighters - Good Grief (Foo Fighters).wav

Peak level 98.5 %
Track quality 100.0 %
Copy CRC DF7047CC
Accurately ripped (confidence 200) [14A595A7]
Copy OK

Track 6

Filename C:\EAC Extraction Directory\06. Foo Fighters - Floaty (Foo Fighters).wav

Peak level 93.3 %
Track quality 99.9 %
Copy CRC 0D0BDCF5
Cannot be verified as accurate (confidence 200) [98EE316D], AccurateRip returned [D29BE132]
Copy OK

Track 7

Filename C:\EAC Extraction Directory\07. Foo Fighters - Weenie Beenie (Foo Fighters).wav

Pre-gap length 0:00:00.17

Peak level 98.4 %
Track quality 100.0 %
Copy CRC D52C2003
Accurately ripped (confidence 200) [713F04AD]
Copy OK

Track 8

Filename C:\EAC Extraction Directory\08. Foo Fighters - Oh, George (Foo Fighters).wav

Pre-gap length 0:00:00.32

Peak level 91.8 %
Track quality 99.9 %
Copy CRC D746A0F6
Accurately ripped (confidence 200) [AE15B563]
Copy OK

Track 9

Filename C:\EAC Extraction Directory\09. Foo Fighters - For All the Cows (Foo Fighters).wav

Peak level 98.6 %
Track quality 100.0 %
Copy CRC 98FDE982
Accurately ripped (confidence 200) [A33FBA9C]
Copy OK

Track 10

Filename C:\EAC Extraction Directory\10. Foo Fighters - X-Static (Foo Fighters).wav

Pre-gap length 0:00:00.33

Peak level 93.4 %
Track quality 100.0 %
Copy CRC D22FBD58
Accurately ripped (confidence 200) [F17C6300]
Copy OK

Track 11

Filename C:\EAC Extraction Directory\11. Foo Fighters - Wattershed (Foo Fighters).wav

Pre-gap length 0:00:00.58

Peak level 98.0 %
Track quality 100.0 %
Copy CRC D672D5BA
Accurately ripped (confidence 200) [C5A3E6AA]
Copy OK

Track 12

Filename C:\EAC Extraction Directory\12. Foo Fighters - Exhausted (Foo Fighters).wav

Pre-gap length 0:00:02.15

Peak level 88.2 %
Track quality 100.0 %
Copy CRC E9FD5CB3
Accurately ripped (confidence 200) [BAEBC8D0]
Copy OK


10 track(s) accurately ripped
2 track(s) could not be verified as accurate

Some tracks could not be verified as accurate

No errors occurred

End of status report


- - - - - - - - - - - - - - - - - - - - - - - - - - - - - - - - -

***RapidShare Links***

Foo pt.1
Foo pt.2

*Password - ->> Argento

- - - - - - - - - - - - - - - - - - - - - - - - - - - - - - - - - - - -


Foo Fighters - Foo Fighters (FLAC)

*Posted by zeus2zeus

***No Mirrors Please***


*More excellent music, films, etc. - ->> My Blog

*Enjoy this great album!