Subcategories
Tags
Language
Tags

Franco Battiato - L'era del cinghiale bianco (2019) {40th Anniversary Remastered Edition, Universal 060257795600 rec 1979}

Posted By: ruskaval
Franco Battiato - L'era del cinghiale bianco (2019) {40th Anniversary Remastered Edition, Universal 060257795600 rec 1979}

Franco Battiato - L'era del cinghiale bianco (2019) {40th Anniversary Remastered Edition, Universal 060257795600 rec 1979}
EAC rip (secure mode) | FLAC (tracks)+CUE+LOG -> 434 Mb | MP3 @320 -> 164 Mb
Full Artwork @ 300 dpi (jpg) -> 13 Mb | 5% repair rar
© 1979, 2019 EMI / Universal Music / Italia | 06025779560
Rock / Pop / Progressive Rock / Pop Rock / Neo-Classical / Spiritual

On the occasion of the fortieth anniversary of the release, Franco Battiato's disc was reprinted on 19 July 2019. The era of the white boar - 40th Anniversary Remastered Edition (1979-2019) on Universal. The album - which in the original version was released on September 10th - marks the pop turning point of the Sicilian artist and is considered by many to be a transitional masterpiece, between past and future, between experimental prog and intellectual pop totally influenced by New Wave. In fact, in the work there are many references to esotericism, exoticism, spirituality, to the philosophy of René Guenon, who defined the era of the white boar as "a mythological and magical age, during which every man reaches absolute knowledge in a spiritual sense".

Among the collaborators: Giusto Pio conducts the orchestra and plays the violin, Tullio De Piscopo on drums and percussion, Julius Farmer on bass, Alberto Radius on guitar, Roberto Colombo and Antonio Ballista on keyboards, Danilo Lorenzini and Michele Fedrigotti on piano.

The digipack format CD - also available in all newsstands - contains 16 tracks with 9 bonus tracks and Battiato himself, on the occasion of this 40th anniversary, has chosen from his archive three demo versions never before published for the songs The king of the world , Stranizza d'amuri and Strade dell'Est. The CD also features 2 foreign language versions, La era del jabalí blanco (in Spanish) and The King of the World (in English) as well as 4 live tracks: The King of the World (Iraqi National Theater in Baghdad, 1992) , Strade dell'Est (Roman Arena of Padua, 1994), Stranizza D'Amuri (Teatro dell'Archivolto of Genoa, 1994) and The era of the white boar (Teatro Lirico di Milano, December 1988). This last song was also included in Giubbe rossi, Franco Battiato's first live album, released in 1989.

The album - from a graphic point of view - is embellished by the work of Francesco Messina, who puts the same Battiato on the cover in an avant-garde poster.
Franco Battiato - L'era del cinghiale bianco (2019) {40th Anniversary Remastered Edition, Universal 060257795600 rec 1979}


Tracklist
1. L'Era Del Cinghiale Bianco (Remastered 2019) (04:17)
2. Magic Shop (Remastered 2019) (04:14)
3. Strade Dell'Est (Remastered 2019) (04:20)
4. Luna Indiana (Remastered 2019) (03:34)
5. Il Re Del Mondo (Remastered 2019) (05:38)
6. Pasqua Etiope (Remastered 2019) (04:29)
7. Stranizza D'Amuri (Remastered 2019) (05:14)
8. Strade Dell'Est (Demo Version) (06:03)
9. Il Re Del Mondo (Demo Version) (05:30)
10. Stranizza D'Amuri (Demo Version) (05:08)
11. La Era Del Jabali Blanco (Remastered 2019 - Spanish Version) (03:48)
12. The King Of The World (Remastered 2019 - English Version) (03:29)
13. Stranizza D'Amuri (Remastered 2019 - Live Version) (02:34)
14. Strade Dell'Est (Remastered 2019 - Live Version) (02:33)
15. Il Re Del Mondo (Remastered 2019 - Live Version) (03:29)
16. L'Era Del Cinghiale Bianco (Remastered 2019 - Live Version) (03:44)

Exact Audio Copy V1.3 from 2. September 2016

EAC extraction logfile from 18. July 2019, 14:38

Franco Battiato / L'era del cinghiale bianco (40° anniversary remastered edition)

Used drive : ASUS BC-12D2HT Adapter: 0 ID: 0

Read mode : Secure
Utilize accurate stream : Yes
Defeat audio cache : Yes
Make use of C2 pointers : No

Read offset correction : 6
Overread into Lead-In and Lead-Out : No
Fill up missing offset samples with silence : Yes
Delete leading and trailing silent blocks : No
Null samples used in CRC calculations : Yes
Used interface : Installed external ASPI interface
Gap handling : Appended to previous track

Used output format : User Defined Encoder
Selected bitrate : 1024 kBit/s
Quality : High
Add ID3 tag : No
Command line compressor : C:\Program Files (x86)\Exact Audio Copy\FLAC\FLAC.EXE
Additional command line options : -8 -V -T "Artist=%artist%" -T "Title=%title%" -T "Album=%albumtitle%" -T "DATE=%year%" -T "TRACKNUMBER=%tracknr%" -T "Genre=%genre%" -T "ALBUMARTIST=%albumartist%" -T "ALBUM ARTIST=%albumartist%" -T "COMMENT=EAC Secure Mode, Test & Copy, AccurateRip, FLAC -8" %source%


TOC of the extracted CD

Track | Start | Length | Start sector | End sector
––––––––––––––––––––––––––––-
1 | 0:00.00 | 4:17.23 | 0 | 19297
2 | 4:17.23 | 4:14.11 | 19298 | 38358
3 | 8:31.34 | 4:20.64 | 38359 | 57922
4 | 12:52.23 | 3:34.03 | 57923 | 73975
5 | 16:26.26 | 5:38.34 | 73976 | 99359
6 | 22:04.60 | 4:29.29 | 99360 | 119563
7 | 26:34.14 | 5:14.60 | 119564 | 143173
8 | 31:48.74 | 6:03.03 | 143174 | 170401
9 | 37:52.02 | 5:30.32 | 170402 | 195183
10 | 43:22.34 | 5:08.09 | 195184 | 218292
11 | 48:30.43 | 3:48.69 | 218293 | 235461
12 | 52:19.37 | 3:29.63 | 235462 | 251199
13 | 55:49.25 | 2:34.68 | 251200 | 262817
14 | 58:24.18 | 2:33.06 | 262818 | 274298
15 | 60:57.24 | 3:29.64 | 274299 | 290037
16 | 64:27.13 | 3:44.24 | 290038 | 306861


Track 1

Filename C:\EAC\01. Franco Battiato - L'era del cinghiale bianco.wav

Pre-gap length 0:00:02.00

Peak level 97.3 %
Extraction speed 0.9 X
Track quality 99.9 %
Test CRC D1DFBE0C
Copy CRC D1DFBE0C
Track not present in AccurateRip database
Copy OK

Track 2

Filename C:\EAC\02. Franco Battiato - Magic shop.wav

Peak level 96.2 %
Extraction speed 1.1 X
Track quality 100.0 %
Test CRC 8A608CF0
Copy CRC 8A608CF0
Track not present in AccurateRip database
Copy OK

Track 3

Filename C:\EAC\03. Franco Battiato - Strade dell'est.wav

Peak level 96.2 %
Extraction speed 1.2 X
Track quality 100.0 %
Test CRC 441520E7
Copy CRC 441520E7
Track not present in AccurateRip database
Copy OK

Track 4

Filename C:\EAC\04. Franco Battiato - Luna indiana.wav

Peak level 61.5 %
Extraction speed 1.3 X
Track quality 100.0 %
Test CRC E3957AB7
Copy CRC E3957AB7
Track not present in AccurateRip database
Copy OK

Track 5

Filename C:\EAC\05. Franco Battiato - Il re del mondo.wav

Peak level 96.4 %
Extraction speed 1.5 X
Track quality 100.0 %
Test CRC 6ED6D13A
Copy CRC 6ED6D13A
Track not present in AccurateRip database
Copy OK

Track 6

Filename C:\EAC\06. Franco Battiato - Pasqua etiope.wav

Peak level 96.0 %
Extraction speed 1.5 X
Track quality 100.0 %
Test CRC C15D0987
Copy CRC C15D0987
Track not present in AccurateRip database
Copy OK

Track 7

Filename C:\EAC\07. Franco Battiato - Stranizza d'amuri.wav

Peak level 96.0 %
Extraction speed 1.6 X
Track quality 100.0 %
Test CRC 425684ED
Copy CRC 425684ED
Track not present in AccurateRip database
Copy OK

Track 8

Filename C:\EAC\08. Franco Battiato - Strade dell'est - Demo version (bonus track).wav

Pre-gap length 0:00:01.90

Peak level 94.7 %
Extraction speed 1.8 X
Track quality 100.0 %
Test CRC 7E51324E
Copy CRC 7E51324E
Track not present in AccurateRip database
Copy OK

Track 9

Filename C:\EAC\09. Franco Battiato - Il re del mondo - Demo version (bonus track).wav

Peak level 94.6 %
Extraction speed 1.9 X
Track quality 100.0 %
Test CRC F100FD4B
Copy CRC F100FD4B
Track not present in AccurateRip database
Copy OK

Track 10

Filename C:\EAC\10. Franco Battiato - Stranizza d'amuri - Demo version (bonus track).wav

Peak level 95.4 %
Extraction speed 1.9 X
Track quality 100.0 %
Test CRC 8E7390E1
Copy CRC 8E7390E1
Track not present in AccurateRip database
Copy OK

Track 11

Filename C:\EAC\11. Franco Battiato - La era del jabali blanco - Spanish version (bonus track).wav

Peak level 96.3 %
Extraction speed 1.9 X
Track quality 100.0 %
Test CRC 91AEDAEF
Copy CRC 91AEDAEF
Track not present in AccurateRip database
Copy OK

Track 12

Filename C:\EAC\12. Franco Battiato - The king of the world - English version (bonus track).wav

Pre-gap length 0:00:01.90

Peak level 75.4 %
Extraction speed 1.6 X
Track quality 99.9 %
Test CRC B6B94834
Copy CRC B6B94834
Track not present in AccurateRip database
Copy OK

Track 13

Filename C:\EAC\13. Franco Battiato - Stranizza d'amuri - Live version (bonus track).wav

Pre-gap length 0:00:01.90

Peak level 94.4 %
Extraction speed 1.9 X
Track quality 100.0 %
Test CRC B1F6FE77
Copy CRC B1F6FE77
Track not present in AccurateRip database
Copy OK

Track 14

Filename C:\EAC\14. Franco Battiato - Strade dell'est - Live version (bonus track).wav

Peak level 94.6 %
Extraction speed 1.6 X
Track quality 99.9 %
Test CRC 1F862C10
Copy CRC 1F862C10
Track not present in AccurateRip database
Copy OK

Track 15

Filename C:\EAC\15. Franco Battiato - Il re del mondo - Live version (bonus track).wav

Peak level 69.1 %
Extraction speed 2.0 X
Track quality 100.0 %
Test CRC 312E03B9
Copy CRC 312E03B9
Track not present in AccurateRip database
Copy OK

Track 16

Filename C:\EAC\16. Franco Battiato - L'era del cinghiale bianco - Live version (bonus track).wav

Peak level 77.4 %
Extraction speed 2.1 X
Track quality 100.0 %
Test CRC D112B8E9
Copy CRC D112B8E9
Track not present in AccurateRip database
Copy OK


None of the tracks are present in the AccurateRip database

No errors occurred

End of status report

–– CUETools DB Plugin V2.1.6

[CTDB TOCID: FnM1Ujk7n7x0RPqC2TSPqb6EOFs-] disk not present in database
Submit result: FnM1Ujk7n7x0RPqC2TSPqb6EOFs- has been uploaded


==== Log checksum B1237E0B159B4679880D6F5E00903BEC96E4B625DCAA7DE485FD9276DAF1B990 ====


Franco Battiato - L'era del cinghiale bianco (2019) {40th Anniversary Remastered Edition, Universal 060257795600 rec 1979}

Franco Battiato - L'era del cinghiale bianco (2019) {40th Anniversary Remastered Edition, Universal 060257795600 rec 1979}



===