Subcategories

Frank Rosolino Quintet - 5 (1957) [Remastered 1993]

Posted By: Bezz
Frank Rosolino Quintet - 5 (1957) [Remastered 1993]

Frank Rosolino Quintet - 5 (1957) [Remastered 1993]
EAC rip | FLAC+CUE+LOG | Scans | 197 Mb(Incl. Recovery)
Genre ~ Bop, Mainstream Jazz, Trombone Jazz | Label ~ V.S.O.P Records

This session for the short-lived Mode label remains the zenith of Frank Rosolino's recorded output. Paired with a stellar support unit featuring pianist Vince Guaraldi, tenorist Richie Kamuca, bassist Monty Budwig, and drummer Stan Levey, the trombonist not only delivers some of the most dazzling solos of his career, but also proves himself a gifted composer, contributing a handful of original tunes that fit comfortably alongside standards like Gershwin's "How Long Has This Been Going On?" Largely eschewing more uptempo fare, Rosolino instead favors a simmering, soulful bop approach that champions feeling as much as technique. This is music with genuine emotional heft and intellectual edge. ~ AllMusic
Tracklist

01. Cherry (4:58)
02. Let’s Make It (3:02)
03. How Long Has This Been Going On (3:40)
04. They Say (4:31)
05. Fine Shape (4:21)
06. Fallout (3:59)
07. Thou Swel (3:21)
08. Tuffy (4:08)

Exact Audio Copy V0.99 prebeta 5 from 4. May 2009

EAC extraction logfile from 10. February 2010, 18:44

Frank Rosolino Quintet / Frank Rosolino Quintet

Used drive : Optiarc DVD RW AD-7240S Adapter: 0 ID: 0

Read mode : Secure
Utilize accurate stream : Yes
Defeat audio cache : Yes
Make use of C2 pointers : No

Read offset correction : 48
Overread into Lead-In and Lead-Out : No
Fill up missing offset samples with silence : Yes
Delete leading and trailing silent blocks : No
Null samples used in CRC calculations : Yes
Used interface : Native Win32 interface for Win NT & 2000
Gap handling : Appended to previous track

Used output format : User Defined Encoder
Selected bitrate : 128 kBit/s
Quality : High
Add ID3 tag : No
Command line compressor : C:\Program Files\Exact Audio Copy\Flac\flac.exe
Additional command line options : -8 -V -T "ARTIST=%a" -T "TITLE=%t" -T "ALBUM=%g" -T "DATE=%y" -T "TRACKNUMBER=%n" -T "GENRE=%m" -T COMMENT=EAC FLAC -8" %s

TOC of the extracted CD

Track | Start | Length | Start sector | End sector
––––––––––––––––––––––––––––-
1 | 0:00.00 | 4:58.62 | 0 | 22411
2 | 4:58.62 | 3:02.15 | 22412 | 36076
3 | 8:01.02 | 3:40.03 | 36077 | 52579
4 | 11:41.05 | 4:31.62 | 52580 | 72966
5 | 16:12.67 | 4:21.30 | 72967 | 92571
6 | 20:34.22 | 3:59.73 | 92572 | 110569
7 | 24:34.20 | 3:21.25 | 110570 | 125669
8 | 27:55.45 | 4:08.60 | 125670 | 144329

Track 1

Filename D:\torrents\5\01 - Cherry.wav

Pre-gap length 0:00:02.00

Peak level 84.4 %
Track quality 100.0 %
Test CRC 7EA2507C
Copy CRC 7EA2507C
Track not present in AccurateRip database
Copy OK

Track 2

Filename D:\torrents\5\02 - Let's Make It.wav

Pre-gap length 0:00:02.40

Peak level 88.2 %
Track quality 100.0 %
Test CRC 063F7904
Copy CRC 063F7904
Track not present in AccurateRip database
Copy OK

Track 3

Filename D:\torrents\5\03 - How Long Has This Been Going On.wav

Pre-gap length 0:00:03.62

Peak level 63.5 %
Track quality 100.0 %
Test CRC 802CEC90
Copy CRC 802CEC90
Track not present in AccurateRip database
Copy OK

Track 4

Filename D:\torrents\5\04 - They Say.wav

Pre-gap length 0:00:03.13

Peak level 65.4 %
Track quality 100.0 %
Test CRC F3E1BC7E
Copy CRC F3E1BC7E
Track not present in AccurateRip database
Copy OK

Track 5

Filename D:\torrents\5\05 - Fine Shape.wav

Pre-gap length 0:00:03.00

Peak level 61.9 %
Track quality 100.0 %
Test CRC DDC6168B
Copy CRC DDC6168B
Track not present in AccurateRip database
Copy OK

Track 6

Filename D:\torrents\5\06 - Fallout.wav

Pre-gap length 0:00:03.20

Peak level 77.0 %
Track quality 100.0 %
Test CRC 8B10A003
Copy CRC 8B10A003
Track not present in AccurateRip database
Copy OK

Track 7

Filename D:\torrents\5\07 - Thou Swell.wav

Pre-gap length 0:00:02.57

Peak level 80.4 %
Track quality 100.0 %
Test CRC 5200F525
Copy CRC 5200F525
Track not present in AccurateRip database
Copy OK

Track 8

Filename D:\torrents\5\08 - Tuffy.wav

Pre-gap length 0:00:03.66

Peak level 84.1 %
Track quality 100.0 %
Test CRC CEDA28D8
Copy CRC CEDA28D8
Track not present in AccurateRip database
Copy OK

None of the tracks are present in the AccurateRip database

No errors occurred

End of status report

Frank Rosolino Quintet - 5 (1957) [Remastered 1993]

Frank Rosolino Quintet - 5 (1957) [Remastered 1993]

Special thanks to donromires!

Welcome to my blog for more wonderful music

PLEASE DO NOT PROVIDE MIRROR LINKS!